Марафон "Наша Победа" [09.05.2018, документальный, история, телемарафон, SATRip]

 
 Статистика раздачи 
Размер: 4.22 ГБ   |  Зарегистрирован: 12 май 2018, 11:00   |   .torrent скачан: 0 раз
Сидеров: 1  [ 0 байт/сек ]     Личеров: 0  [ 0 байт/сек ]  
  

Марафон "Наша Победа" [09.05.2018, документальный, история, телемарафон, SATRip]

Сообщение Nakazhu » 12 май 2018, 11:00

Марафон "Наша Победа"
Дата/Год выпуска: 09.05.2018
Страна: Украина
Жанр: документальный, история, телемарафон
Продолжительность: 05:48:07
Перевод: Не требуется
Русские субтитры: нет
Оригинальная аудиодорожка: русский
Ведущие: Анастасия Даугуле и Роман Кадемин
Телеканал: Iнтер/Iнтер+Описание: В среду, 9 мая, с 7:00 в прямом эфире на телеканале "Интер" - многочасовой марафон "Наша Победа", ведущими которого будут Анастасия Даугуле и Роман Кадемин. Журналисты "Интера" отправились в Нидерланды, Францию, Италию, Чехию, Польшу, чтобы рассказать зрителям истории антифашистского сопротивления в этих странах. Посетили места боев и поговорили с участниками Сталинградского сражения, Курской битвы, освобождения Прибалтики и Беларуси. А также побывали в Будапеште и Калининграде, чтобы рассказать о том, как были взяты эти города. Кроме того, зрители услышат удивительные истории тех, кто не сломился и приближал нашу победу в нацистском Берлине. В рамках марафона состоятся прямые включения из разных городов Украины, чтобы показать, как наша страна празднует День Победы.
Доп. информация: Программа на русском языке, но украинская речь присутствует.Сэмпл: https://www.sendspace.com/file/6hu49p
качество: SATRip
формат: AVI
Видео: Xvid 720x400 (16:9) ~1536kbps 25fps
Аудио: MP3 192kbps 48kHz 2ch
Код: Выделить всё
General
Complete name                  : D:\Обработка\_ГОТОВО\Наша Победа (09.05.2018).avi
Format                         : AVI
Format/Info                    : Audio Video Interleave
Format profile                 : OpenDML
File size                      : 4.22 GiB
Duration                       : 5 h 48 min
Overall bit rate               : 1 737 kb/s
Writing library                : VirtualDub build 35576/release
Video
ID                             : 0
Format                         : MPEG-4 Visual
Format profile                 : Advanced Simple@L5
Format settings, BVOP          : 2
Format settings, QPel          : No
Format settings, GMC           : No warppoints
Format settings, Matrix        : Default (H.263)
Muxing mode                    : Packed bitstream
Codec ID                       : XVID
Codec ID/Hint                  : XviD
Duration                       : 5 h 48 min
Bit rate                       : 1 536 kb/s
Width                          : 720 pixels
Height                         : 400 pixels
Display aspect ratio           : 16:9
Frame rate                     : 25.000 FPS
Color space                    : YUV
Chroma subsampling             : 4:2:0
Bit depth                      : 8 bits
Scan type                      : Progressive
Compression mode               : Lossy
Bits/(Pixel*Frame)             : 0.213
Stream size                    : 3.73 GiB (88%)
Writing library                : XviD 73
Audio
ID                             : 1
Format                         : MPEG Audio
Format version                 : Version 1
Format profile                 : Layer 3
Mode                           : Joint stereo
Codec ID                       : 55
Codec ID/Hint                  : MP3
Duration                       : 5 h 48 min
Bit rate mode                  : Constant
Bit rate                       : 192 kb/s
Channel(s)                     : 2 channels
Sampling rate                  : 48.0 kHz
Compression mode               : Lossy
Stream size                    : 478 MiB (11%)
Alignment                      : Split accross interleaves
Interleave, duration           : 40  ms (1.00 video frame)
Interleave, preload duration   : 500  ms
 
Не забывайте говорить Спасибо. Не уходите с раздачи!   
Торрент: Зарегистрирован [12 май 2018, 11:00] Скачать торрент
Скачать торрент
[ Размер 11.13 КБ / Просмотров 5 ]
Статус:
Проверен
 
.torrent скачан: 0 раз
Хэш: 5eb95537291f0d199bffd060245de544afb75edb
Размер: 4.22 ГБ (4 534 896 824 байт)
Стать Автором раздачи
 
 
Раздал: 0 байт
Скачал: 0 байт
Ратио: Inf.
Сообщения: 487468
Зарегистрирован: 17 апр 2014, 13:57


  • Похожие торренты
    Ответы
    Просмотры
    Последнее сообщение

Вернуться в Документальные фильмы и телепередачи

Ресурс не предоставляет электронные версии произведений, а занимается лишь коллекционированием и каталогизацией ссылок, присылаемых и публикуемых на форуме нашими читателями. Если вы являетесь правообладателем какого-либо представленного материала и не желаете чтобы ссылка на него находилась в нашем каталоге, свяжитесь с нами и мы незамедлительно удалим её. Файлы для обмена на трекере предоставлены пользователями сайта, и администрация не несёт ответственности за их содержание. Просьба не заливать файлы, защищенные авторскими правами, а также файлы нелегального содержания!
cron