BBC: Морские гиганты / Ocean Giants (2011) BDRemux [VC-1/1080p] (Серии 1-3 из 3)

 
 Статистика раздачи 
Размер: 16.4 ГБ   |  Зарегистрирован: 12 май 2018, 02:42   |   .torrent скачан: 0 раз
Сидеров: 1  [ 0 байт/сек ]     Личеров: 0  [ 0 байт/сек ]  
  

BBC: Морские гиганты / Ocean Giants (2011) BDRemux [VC-1/1080p] (Серии 1-3 из 3)

Сообщение explosiveone » 12 май 2018, 02:42

Морские гиганты / Ocean Giants (2011) BDRemux [VC-1/1080p] (Серии 1-3 из 3)

Производство: Великобритания, BBC Bristol, Thirteen / WNET
Жанр: Документальный, природа, фауна

Режиссер: Ингрид Квале, Аннушка Скофилд, Эллен Хусейн
Участники: Стивен Фрай, Даг Аллен, Дидье Нуаре, Эндрю Армор, Вера Да Силва, Джим Дарлинг, Аша Де Воз и др.

Описание:
В подводном мире киты и дельфины ведут необычный образ жизни. Их мир совершенно отличен от нашего, и мы можем лишь заглянуть туда. Синий кит - крупнейшее животное на планете. Более того, это крупнейшее животное из когда-либо живших на Земле. Миллионы лет эти гигантские киты и их сверхразумные братья - дельфины, царили в подводном мире.
Наши отношения с ними не всегда были дружественными. Ранее мы преследовали их. Но теперь мы протягиваем им руку и испытываем ощущение чуда. Вместе с исследователями, посвятившими им свою жизнь, мы встретим самых удивительных китов и дельфинов, раскроем их тайны, услышим их голоса. Загадочные голоса китов и дельфинов веками давали пищу воображению. Возможно, ученые когда-нибудь узнают правду о чудесных голосах океана. Но пока что частная жизнь гигантов океана покрыта тайной.

http://www.imdb.com/title/tt2350779/?ref_=plg_rt_1

Релиз от: HDclub
Продолжительность: 3 х 00:51:00
Качество видео: BDRemux
Перевод: Двуголосый закадровый, профессиональный (Омикрон)
Субтитры: отсутствуют

Видео: VC-1, 1920x1080, ~14,0 Mbps
Аудио#1: AC3, 2 ch, 640 Kbps | Русский
Аудио#2: AC3, 2 ch, 640 Kbps | Английский
Код: Выделить всё
Общее
Уникальный идентификатор                 : 233941177901026757805729372097410216367 (0xAFFF6E95E12C22768C58ABDEB5CBB1AF)
Полное имя                               : F:\КИНО\Ocean.Giants.2011.1080p.Bluray.VC-1.Remux.HDCLUB\02_Deep Thinkers.mkv
Формат                                   : Matroska
Версия формата                           : Version 4 / Version 2
Размер файла                             : 5,54 Гбайт
Продолжительность                        : 51 м. 51 с.
Общий поток                              : 15,3 Мбит/сек
Дата кодирования                         : UTC 2018-05-11 11:11:43
Программа кодирования                    : mkvmerge v23.0.0 ('The Bride Said No') 64-bit
Библиотека кодирования                   : libebml v1.3.6 + libmatroska v1.4.9

Видео
Идентификатор                            : 1
Формат                                   : VC-1
Профиль формата                          : Advanced@L3
Идентификатор кодека                     : V_MS/VFW/FOURCC / WVC1
Идентификатор кодека/Подсказка           : Microsoft
Продолжительность                        : 51 м. 51 с.
Битрейт                                  : 14,0 Мбит/сек
Ширина                                   : 1920 пикселей
Высота                                   : 1080 пикселей
Соотношение сторон                       : 16:9
Режим частоты кадров                     : Постоянный
Частота кадров                           : 25,000 кадров/сек
Цветовое пространство                    : YUV
Субдискретизация насыщенности            : 4:2:0
Битовая глубина                          : 8 бит
Тип развёртки                            : Прогрессивная
Порядок развёртки                        : Верхнее поле первое
Метод сжатия                             : С потерями
Бит/(Пиксели*Кадры)                      : 0.270
Размер потока                            : 5,07 Гбайт (92%)
Default                                  : Да
Forced                                   : Нет

Аудио #1
Идентификатор                            : 2
Формат                                   : AC-3
Формат/Информация                        : Audio Coding 3
Идентификатор кодека                     : A_AC3
Продолжительность                        : 51 м. 51 с.
Вид битрейта                             : Постоянный
Битрейт                                  : 640 Кбит/сек
Каналы                                   : 2 канала
Расположение каналов                     : Front: L R
Частота                                  : 48,0 КГц
Частота кадров                           : 31,250 кадров/сек (1536 SPF)
Битовая глубина                          : 16 бит
Метод сжатия                             : С потерями
Задержка видео                           : 40 мс.
Размер потока                            : 237 Мбайт (4%)
Язык                                     : Russian
ServiceKind/String                       : Complete Main
Default                                  : Да
Forced                                   : Нет

Аудио #2
Идентификатор                            : 3
Формат                                   : AC-3
Формат/Информация                        : Audio Coding 3
Идентификатор кодека                     : A_AC3
Продолжительность                        : 51 м. 51 с.
Вид битрейта                             : Постоянный
Битрейт                                  : 640 Кбит/сек
Каналы                                   : 2 канала
Расположение каналов                     : Front: L R
Частота                                  : 48,0 КГц
Частота кадров                           : 31,250 кадров/сек (1536 SPF)
Битовая глубина                          : 16 бит
Метод сжатия                             : С потерями
Задержка видео                           : 40 мс.
Размер потока                            : 237 Мбайт (4%)
Язык                                     : English
ServiceKind/String                       : Complete Main
Default                                  : Нет
Forced                                   : Нет
Часть 1: Жизнь гигантов / Giant Lives
Часть 2: Глубокие мысли / Deep Thinkers
Часть 3: Голоса океана / Voices of The Sea

Скриншоты:



Время раздачи: с 18:00 до 23:00 (до появления первых 3-5 скачавших)
 
Не забывайте говорить Спасибо. Не уходите с раздачи!   
Торрент: Зарегистрирован [12 май 2018, 02:42] Скачать торрент
Скачать торрент
[ Размер 42.01 КБ / Просмотров 10 ]
Статус:
Проверен
 
.torrent скачан: 0 раз
Хэш: d861216a1bb38fd5f3ec21b27615bbb1bde9d630
Размер: 16.4 ГБ (17 613 293 993 байт)
Стать Автором раздачи
 
 
Раздал: 100 ГБ
Скачал: 0 байт
Ратио: Seed.
Сообщения: 111583
Зарегистрирован: 09 апр 2015, 22:31


  • Похожие торренты
    Ответы
    Просмотры
    Последнее сообщение

Вернуться в BBC

Ресурс не предоставляет электронные версии произведений, а занимается лишь коллекционированием и каталогизацией ссылок, присылаемых и публикуемых на форуме нашими читателями. Если вы являетесь правообладателем какого-либо представленного материала и не желаете чтобы ссылка на него находилась в нашем каталоге, свяжитесь с нами и мы незамедлительно удалим её. Файлы для обмена на трекере предоставлены пользователями сайта, и администрация не несёт ответственности за их содержание. Просьба не заливать файлы, защищенные авторскими правами, а также файлы нелегального содержания!