Упражнения в прекрасном (Виктор Шамиров) [2011, комедия, трагикомедия, DVDRip, AVC]

 
 Статистика раздачи 
Размер: 1.67 ГБ   |  Зарегистрирован: 10 май 2018, 17:57   |   .torrent скачан: 0 раз
Сидеров: 1  [ 0 байт/сек ]     Личеров: 0  [ 0 байт/сек ]  
  

Упражнения в прекрасном (Виктор Шамиров) [2011, комедия, трагикомедия, DVDRip, AVC]

Сообщение Nakazhu » 10 май 2018, 17:57

Упражнения в прекрасном
Жанр: комедия, трагикомедия
Год выпуска: 2011
Продолжительность: 01:33:18
Режиссёр: Виктор Шамиров
В ролях: Виктор Шамиров, Гоша Куценко, Константин Юшкевич, Ксения Радченко, Павел Савинков
Описание: В центре сюжета — история о том, как группа из четырех актеров и их администратора отправляется на гастроли по городам российской глубинки. Разборки с продюсером и приступы «звездной болезни», репетиции и интриги, флирт в гостинице и похмельные переезды из одного города в другой, смех и слезы, провал и успех – все смешалось в веселой и одновременно поучительной истории из неизвестной широкому зрителю жизни театрального закулисья.
Сэмпл
Качество видео: DVDRip (исходник)
Формат видео: MKV
Видео: H.264 (AVC), 720x554 (1,85:1), 25 fps, 2057 Kb/s
Аудио: 5.1, AC3, 448 Kb/s, 48 кГц, 16 бит
Код:
Код: Выделить всё
Общее
Уникальный идентификатор                 : 112578191890313527798441981873516802488 (0x54B1C565CDC5D624C4618227563971B8)
Полное имя                               : /Volumes/Main2/torrents/uploads_data_my/rutracker/video/Упражнения в прекрасном [2011].mkv
Формат                                   : Matroska
Версия формата                           : Version 4 / Version 2
Размер файла                             : 1,67 Гбайт
Продолжительность                        : 1 ч. 33 м.
Общий поток                              : 2556 Кбит/сек
Дата кодирования                         : UTC 2018-05-07T15:30:39Z
Программа кодирования                    : HandBrake 1.1.0 2018040700
Библиотека кодирования                   : Lavf57.7.2 / Lavf57.7.2
Видео
Идентификатор                            : 1
Формат                                   : AVC
Формат/Информация                        : Advanced Video Codec
Профиль формата                          : High@L3.1
Параметр CABAC формата                   : Да
Параметр ReFrames формата                : 10 кадров
Идентификатор кодека                     : V_MPEG4/ISO/AVC
Продолжительность                        : 1 ч. 33 м.
Битрейт                                  : 2057 Кбит/сек
Ширина                                   : 720 пикселей
Высота                                   : 554 пикселя
Соотношение сторон                       : 1,85:1
Режим частоты кадров                     : Постоянный
Частота кадров                           : 25,000 кадров/сек
Цветовое пространство                    : YUV
Субдискретизация насыщенности            : 4:2:0
Битовая глубина                          : 8 бит
Тип развёртки                            : Прогрессивная
Бит/(Пиксели*Кадры)                      : 0.206
Размер потока                            : 1,34 Гбайт (80%)
Библиотека кодирования                   : x264 core 155 r2893 b00bcaf
Настройки программы                      : cabac=1 / ref=10 / deblock=1:-1:-1 / analyse=0x3:0x133 / me=umh / subme=10 / psy=1 / psy_rd=1.00:0.10 / mixed_ref=1 / me_range=24 / chroma_me=1 / trellis=2 / 8x8dct=1 / cqm=0 / deadzone=21,11 / fast_pskip=1 / chroma_qp_offset=-3 / threads=6 / lookahead_threads=1 / sliced_threads=0 / nr=0 / decimate=1 / interlaced=0 / bluray_compat=0 / constrained_intra=0 / bframes=8 / b_pyramid=2 / b_adapt=2 / b_bias=0 / direct=3 / weightb=1 / open_gop=0 / weightp=2 / keyint=250 / keyint_min=25 / scenecut=40 / intra_refresh=0 / rc_lookahead=60 / rc=crf / mbtree=1 / crf=18.0 / qcomp=0.60 / qpmin=0 / qpmax=69 / qpstep=4 / ip_ratio=1.40 / aq=1:1.00
Default                                  : Да
Forced                                   : Нет
Цветовой диапазон                        : Limited
Основные цвета                           : BT.601 PAL
Характеристики трансфера                 : BT.709
Коэффициенты матрицы                     : BT.601
Аудио
Идентификатор                            : 2
Формат                                   : AC-3
Формат/Информация                        : Audio Coding 3
Параметр Endianness формата              : Big
Идентификатор кодека                     : A_AC3
Продолжительность                        : 1 ч. 33 м.
Вид битрейта                             : Постоянный
Битрейт                                  : 448 Кбит/сек
Каналы                                   : 6 каналов
Расположение каналов                     : Front: L C R, Side: L R, LFE
Частота                                  : 48,0 КГц
Частота кадров                           : 31,250 кадров/сек (1536 spf)
Битовая глубина                          : 16 бит
Метод сжатия                             : С потерями
Задержка видео                           : -80 мс.
Размер потока                            : 299 Мбайт (18%)
Заголовок                                : Surround
Язык                                     : Russian
Service kind                             : Complete Main
Default                                  : Да
Forced                                   : Нет
Меню
00:00:00.080                             : :Chapter 1
00:01:28.400                             : :Chapter 2
00:14:04.400                             : :Chapter 3
00:26:28.880                             : :Chapter 4
00:37:51.920                             : :Chapter 5
00:50:47.120                             : :Chapter 6
01:03:24.560                             : :Chapter 7
01:15:23.600                             : :Chapter 8
01:29:14.480                             : :Chapter 9

 
Не забывайте говорить Спасибо. Не уходите с раздачи!   
Торрент: Зарегистрирован [10 май 2018, 17:57] Для скачивания .torrent
необходима регистрация
Или скачать с помощью
MediaGet
Статус:
Проверен
 
.torrent скачан: 0 раз
Хэш: 2d7e9b0825946d15fd3441087077158c02840975
Размер: 1.67 ГБ (1 788 471 318 байт)
Стать Автором раздачи
 
 
Раздал: 0 байт
Скачал: 0 байт
Ратио: Inf.
Сообщения: 471957
Зарегистрирован: 17 апр 2014, 13:57


  • Похожие торренты
    Ответы
    Просмотры
    Последнее сообщение

Вернуться в Отечественные фильмы 2011 - 2015 года

Ресурс не предоставляет электронные версии произведений, а занимается лишь коллекционированием и каталогизацией ссылок, присылаемых и публикуемых на форуме нашими читателями. Если вы являетесь правообладателем какого-либо представленного материала и не желаете чтобы ссылка на него находилась в нашем каталоге, свяжитесь с нами и мы незамедлительно удалим её. Файлы для обмена на трекере предоставлены пользователями сайта, и администрация не несёт ответственности за их содержание. Просьба не заливать файлы, защищенные авторскими правами, а также файлы нелегального содержания!
cron