[TR24][OF][FM] John Williams: A Life In Music (by London Symphony Orchestra & Gavin Greenaway) 2018 (Score)

 
 Статистика раздачи 
Размер: 553.46 МБ   |  Зарегистрирован: 09 май 2018, 10:41   |   .torrent скачан: 0 раз
Сидеров: 1  [ 0 байт/сек ]     Личеров: 0  [ 0 байт/сек ]  
  

[TR24][OF][FM] John Williams: A Life In Music (by London Symphony Orchestra & Gavin Greenaway) 2018 (Score)

Сообщение Nakazhu » 09 май 2018, 10:41

London Symphony Orchestra - John Williams: A Life In Music
Формат записи/Источник записи: [TR24][OF]
Наличие водяных знаков: Нет
Год издания/переиздания диска: 2018
Жанр: Score
Издатель (лейбл): Decca
Продолжительность: 50:26
Наличие сканов в содержимом раздачи: Только обложка альбома
Треклист:
01. Main Title (From “Star Wars”) (6:08)
02. Theme (From “Jurassic Park”) (6:02)
03. Hedwig's Theme (From “Harry Potter And The Sorcerer's Stone”) (5:08)
04. The Raiders March (From “Raiders Of The Lost Ark”) (5:41)
05. Flying Theme (From “E.T.”) (4:06)
06. Theme (From “Schindler's List”) (4:06)
07. The Flight To Neverland (From “Hook”) (4:56)
08. Hymn To The Fallen (From “Saving Private Ryan”) (6:26)
09. Shark Theme (From “Jaws”) (3:13)
10. Superman March (From “Superman”) (4:41)
London Symphony Orchestra & Gavin Greenaway - conductor, cello (solo)
 
John Williams: A Life In Music – a brand new album of iconic movie scores by the world’s most successful film composer – including Star Wars, Jurassic Park, E.T. and many more. The album, which will be released on May the 4th (International Star Wars Day) features brand new recordings with the London Symphony Orchestra, who recorded many of the original versions, and includes a world premiere recording of Schindler’s List for cello - which has never been heard before.
Recorded by an 86-piece orchestra, this epic collection of music was conducted by Gavin Greenaway and recorded at London’s Air Studios. The 10-track album features Hedwig’s Theme from Harry Potter, performed by the LSO for the very first time. The premiere of Schindler’s List is the first time Williams’ official arrangement for cello has ever been recorded.
The LSO’s close connection with Williams dates back nearly 40 years, and the standard is there to be heard in these new recordings. From writing the world’s best-loved soundtracks – including Jaws, ET and the Home Alone films – to conducting some of the worlds most accomplished orchestras, Williams truly is one of the greatest living composers of our generation.
Following this year’s Oscar nominations, Williams broke his own record with more Oscar nominations than any other living person – a title he first earned in 2016. Williams has also won five Academy Awards, seven BAFTAs, 24 Grammy’s, four Golden Globes, five Emmys and numerous gold and platinum records.
This year, the Hollywood legend celebrates sixty years in movies. Alongside the release of this once-in-a-lifetime album, Williams will also conduct the LSO in an extremely rare performance at London’s Royal Albert Hall, making it the 86-year-old composer's first performance in the UK for 22 years.
Over the span of his extraordinary career, Williams has graced the TV screens and touched the hearts of people across the world with his music, and this new album promises to do the same.

Контейнер: FLAC (*.flac)
Тип рипа: tracks
Разрядность: 24/48
Формат: PCM
Количество каналов: 2.0
Код: Выделить всё
foobar2000 1.3.9 / Dynamic Range Meter 1.1.1
log date: 2018-05-08 19:33:51
--------------------------------------------------------------------------------
Analyzed: London Symphony Orchestra / John Williams: A Life In Music
--------------------------------------------------------------------------------
DR         Peak         RMS     Duration Track
--------------------------------------------------------------------------------
DR12      -0.04 dB   -14.63 dB      6:08 01-Main Title (From “Star Wars”)
DR12      -0.02 dB   -16.32 dB      6:02 02-Theme (From “Jurassic Park”)
DR12       0.00 dB   -16.67 dB      5:08 03-Hedwig's Theme (From “Harry Potter And The Sorcerer's Stone”)
DR12       0.00 dB   -15.61 dB      5:41 04-The Raiders March (From “Raiders Of The Lost Ark”)
DR11       0.00 dB   -15.14 dB      4:06 05-Flying Theme (From “E.T.”)
DR12      -1.16 dB   -20.20 dB      4:06 06-Theme (From “Schindler's List”)
DR13      -0.02 dB   -15.32 dB      4:56 07-The Flight To Neverland (From “Hook”)
DR11       0.00 dB   -16.78 dB      6:26 08-Hymn To The Fallen (From “Saving Private Ryan”)
DR12       0.00 dB   -17.04 dB      3:13 09-Shark Theme (From “Jaws”)
DR12       0.00 dB   -14.91 dB      4:41 10-Superman March (From “Superman”)
--------------------------------------------------------------------------------
Number of tracks:  10
Official DR value: DR12
Samplerate:        48000 Hz
Channels:          2
Bits per sample:   24
Bitrate:           1581 kbps
Codec:             FLAC
================================================================================
Источник: highresaudio.com[/spoiler]
 
Не забывайте говорить Спасибо. Не уходите с раздачи!   
Торрент: Зарегистрирован [09 май 2018, 10:41] Скачать торрент
Скачать торрент
[ Размер 12.18 КБ / Просмотров 15 ]
Статус:
Проверен
 
.torrent скачан: 0 раз
Хэш: ab69ac21226a1c4891bf5ad29c40871dfe43b039
Размер: 553.46 МБ (580 339 993 байт)
Стать Автором раздачи
 
 
Раздал: 0 байт
Скачал: 0 байт
Ратио: Inf.
Сообщения: 487468
Зарегистрирован: 17 апр 2014, 13:57


  • Похожие торренты
    Ответы
    Просмотры
    Последнее сообщение

Вернуться в Минусовки (Instrumentals)

Ресурс не предоставляет электронные версии произведений, а занимается лишь коллекционированием и каталогизацией ссылок, присылаемых и публикуемых на форуме нашими читателями. Если вы являетесь правообладателем какого-либо представленного материала и не желаете чтобы ссылка на него находилась в нашем каталоге, свяжитесь с нами и мы незамедлительно удалим её. Файлы для обмена на трекере предоставлены пользователями сайта, и администрация не несёт ответственности за их содержание. Просьба не заливать файлы, защищенные авторскими правами, а также файлы нелегального содержания!
cron