Патриархи ХХ века (Борис Корнухов, Нелли Шевченко) [1999, торжество Православия, DVDRip]

 
 Статистика раздачи 
Размер: 950.92 МБ   |  Зарегистрирован: 06 май 2018, 22:43   |   .torrent скачан: 0 раз
Сидеров: 1  [ 0 байт/сек ]     Личеров: 0  [ 0 байт/сек ]  
  

Патриархи ХХ века (Борис Корнухов, Нелли Шевченко) [1999, торжество Православия, DVDRip]

Сообщение Nakazhu » 06 май 2018, 22:43

Патриархи ХХ века
Дата/Год выпуска: 1999
Страна
: Россия
Жанр: торжество Православия
Продолжительность: 01:21:47
Перевод: Не требуется
Русские субтитры: нет
Оригинальная аудиодорожка: русский
Режиссер: Борис Корнухов , Нелли Шевченко
Описание: Патриаршее служение – это подвиг, а патриаршее служение в России ХХ века – особый. Пять патриархов было в России в ХХ веке. Пять судеб, вобравших в себя испытания, выпавшие на долю Русской Православной Церкви в этом столетии. Документальные фильмы рассказывают о Патриархе Тихоне (1917-1925), Патриархе Сергии (1943-1944), Патриархе Алексии I (1945-1970), Патриархе Пимене (1971-1990) и Патриархе Алексии II, избранном в 1990 году.
качество: DVDRip
формат: AVI
Видео: MPEG4, XviD, 704x528 (4:3), 25.000 fps, 1 492 Kbps (0.161 bit/pixel)
Аудио: AC-3, 48.0 KHz, 2 ch, 128 Kbps, CBR
Код: Выделить всё
General
Complete name                            : C:\Users\User\Downloads\Патриархи ХХ века.avi
Format                                   : AVI
Format/Info                              : Audio Video Interleave
File size                                : 951 MiB
Duration                                 : 1h 21mn
Overall bit rate                         : 1 625 Kbps
Video
ID                                       : 0
Format                                   : MPEG-4 Visual
Format profile                           : Advanced Simple@L5
Format settings, BVOP                    : 1
Format settings, QPel                    : No
Format settings, GMC                     : No warppoints
Format settings, Matrix                  : Default (H.263)
Codec ID                                 : XVID
Codec ID/Hint                            : XviD
Duration                                 : 1h 21mn
Bit rate                                 : 1 492 Kbps
Width                                    : 704 pixels
Height                                   : 528 pixels
Display aspect ratio                     : 4:3
Frame rate                               : 25.000 fps
Color space                              : YUV
Chroma subsampling                       : 4:2:0
Bit depth                                : 8 bits
Scan type                                : Progressive
Compression mode                         : Lossy
Bits/(Pixel*Frame)                       : 0.161
Stream size                              : 873 MiB (92%)
Writing library                          : XviD 1.2.1 (UTC 2008-12-04)
Audio
ID                                       : 1
Format                                   : AC-3
Format/Info                              : Audio Coding 3
Mode extension                           : CM (complete main)
Format settings, Endianness              : Big
Codec ID                                 : 2000
Duration                                 : 1h 21mn
Bit rate mode                            : Constant
Bit rate                                 : 128 Kbps
Channel(s)                               : 2 channels
Channel positions                        : Front: L R
Sampling rate                            : 48.0 KHz
Bit depth                                : 16 bits
Compression mode                         : Lossy
Delay relative to video                  : 40ms
Stream size                              : 74.9 MiB (8%)
Alignment                                : Split accross interleaves
Interleave, duration                     : 500 ms (12.50 video frames)
Interleave, preload duration             : 500 ms
 
Не забывайте говорить Спасибо. Не уходите с раздачи!   
Торрент: Зарегистрирован [06 май 2018, 22:43] Для скачивания .torrent
необходима регистрация
Или скачать с помощью
MediaGet
Статус:
Проверен
 
.torrent скачан: 0 раз
Хэш: 5c6be13dd7970c26fb7895ea2318475512bb1f91
Размер: 950.92 МБ (997 116 826 байт)
Стать Автором раздачи
 
 
Раздал: 0 байт
Скачал: 0 байт
Ратио: Inf.
Сообщения: 487468
Зарегистрирован: 17 апр 2014, 13:57


  • Похожие торренты
    Ответы
    Просмотры
    Последнее сообщение

Вернуться в Вера и религия (видео)

Ресурс не предоставляет электронные версии произведений, а занимается лишь коллекционированием и каталогизацией ссылок, присылаемых и публикуемых на форуме нашими читателями. Если вы являетесь правообладателем какого-либо представленного материала и не желаете чтобы ссылка на него находилась в нашем каталоге, свяжитесь с нами и мы незамедлительно удалим её. Файлы для обмена на трекере предоставлены пользователями сайта, и администрация не несёт ответственности за их содержание. Просьба не заливать файлы, защищенные авторскими правами, а также файлы нелегального содержания!
cron