Молитвенник земли русской преподобный Сергий Радонежский (Н. Астахова) [2013, торжество Православия, DVDRip]

 
 Статистика раздачи 
Размер: 505.4 МБ   |  Зарегистрирован: 06 май 2018, 21:41   |   .torrent скачан: 0 раз
Сидеров: 1  [ 0 байт/сек ]     Личеров: 0  [ 0 байт/сек ]  
  

Молитвенник земли русской преподобный Сергий Радонежский (Н. Астахова) [2013, торжество Православия, DVDRip]

Сообщение Nakazhu » 06 май 2018, 21:41

Молитвенник земли русской преподобный Сергий Радонежский
Дата/Год выпуска: 2013
Страна
: Россия
Жанр: торжество Православия
Продолжительность: 00:37:24
Перевод: Не требуется
Русские субтитры: нет
Оригинальная аудиодорожка: русский
Режиссер: Н. Астахова
Описание: Фильм посвящен одному из древнейших монастырей России, основанному в середине XIV века. Основателем его является преподобный Сергий Радонежский чудотворец, дом преподобного Сергия - знаменитая Троице-Сергиева Лавра. Фильм призван раскрыть житие и монашеский подвиг преподобного Сергия Радонежского и отобразить преемственность духовных традиций, заложенных преподобным Сергием, в жизни главного монастыря Русской Православной Церкви и московских духовных школ. Как прежде, так и сейчас русский православный человек стремится хотя бы раз в жизни поклониться святым мощам и испросить молитв преподобного на своем жизненном пути, научиться Вере Православной, молитве, жизни по заповедям Божиим.
качество: DVDRip
формат: AVI
Видео: MPEG4, XviD, 720x544 (4:3), 25.000 fps, 1 692 Kbps (0.173 bit/pixel)
Аудио: AC-3, 48.0 KHz, 2 ch, 192 Kbps, CBR
Код: Выделить всё
General
Complete name                            : C:\Users\User\Downloads\Молитвенник земли русской преподобный Сергий Радонежский.avi
Format                                   : AVI
Format/Info                              : Audio Video Interleave
File size                                : 505 MiB
Duration                                 : 37mn 24s
Overall bit rate                         : 1 889 Kbps
Movie name                               : Молитвенник земли русской преподобный Сергий Радонежский
Writing application                      : MEncoder Redxii-SVN-r36896-4.8.2
Video
ID                                       : 0
Format                                   : MPEG-4 Visual
Format profile                           : Advanced Simple@L5
Format settings, BVOP                    : 1
Format settings, QPel                    : No
Format settings, GMC                     : No warppoints
Format settings, Matrix                  : Default (H.263)
Codec ID                                 : XVID
Codec ID/Hint                            : XviD
Duration                                 : 37mn 24s
Bit rate                                 : 1 692 Kbps
Width                                    : 720 pixels
Height                                   : 544 pixels
Display aspect ratio                     : 4:3
Original display aspect ratio            : 4:3
Frame rate                               : 25.000 fps
Color space                              : YUV
Chroma subsampling                       : 4:2:0
Bit depth                                : 8 bits
Scan type                                : Progressive
Compression mode                         : Lossy
Bits/(Pixel*Frame)                       : 0.173
Stream size                              : 453 MiB (90%)
Writing library                          : XviD 64
Audio
ID                                       : 1
Format                                   : AC-3
Format/Info                              : Audio Coding 3
Mode extension                           : CM (complete main)
Format settings, Endianness              : Big
Codec ID                                 : 2000
Duration                                 : 37mn 24s
Bit rate mode                            : Constant
Bit rate                                 : 192 Kbps
Channel(s)                               : 2 channels
Channel positions                        : Front: L R
Sampling rate                            : 48.0 KHz
Bit depth                                : 16 bits
Compression mode                         : Lossy
Delay relative to video                  : 40ms
Stream size                              : 51.4 MiB (10%)
Alignment                                : Split accross interleaves
Interleave, duration                     : 500 ms (12.50 video frames)
Interleave, preload duration             : 500 ms
 
Не забывайте говорить Спасибо. Не уходите с раздачи!   
Торрент: Зарегистрирован [06 май 2018, 21:41] Для скачивания .torrent
необходима регистрация
Или скачать с помощью
MediaGet
Статус:
Проверен
 
.torrent скачан: 0 раз
Хэш: 3e2c30ca53465079970281546c20d8092114635a
Размер: 505.4 МБ (529 948 240 байт)
Стать Автором раздачи
 
 
Раздал: 0 байт
Скачал: 0 байт
Ратио: Inf.
Сообщения: 487468
Зарегистрирован: 17 апр 2014, 13:57


  • Похожие торренты
    Ответы
    Просмотры
    Последнее сообщение

Вернуться в Вера и религия (видео)

Ресурс не предоставляет электронные версии произведений, а занимается лишь коллекционированием и каталогизацией ссылок, присылаемых и публикуемых на форуме нашими читателями. Если вы являетесь правообладателем какого-либо представленного материала и не желаете чтобы ссылка на него находилась в нашем каталоге, свяжитесь с нами и мы незамедлительно удалим её. Файлы для обмена на трекере предоставлены пользователями сайта, и администрация не несёт ответственности за их содержание. Просьба не заливать файлы, защищенные авторскими правами, а также файлы нелегального содержания!
cron