Прогулка по Горячему Ключу (Андрей Соколов) [2010, путешествия и туризм, SATRip]

 
 Статистика раздачи 
Размер: 309.9 МБ   |  Зарегистрирован: 05 май 2018, 22:12   |   .torrent скачан: 0 раз
Сидеров: 1  [ 0 байт/сек ]     Личеров: 0  [ 0 байт/сек ]  
  

Прогулка по Горячему Ключу (Андрей Соколов) [2010, путешествия и туризм, SATRip]

Сообщение Nakazhu » 05 май 2018, 22:12

Прогулка по Горячему Ключу
Дата/Год выпуска: 2010
Страна
: Россия
Жанр: путешествия и туризм
Продолжительность: 00:24:14
Перевод: Не требуется
Русские субтитры: нет
Оригинальная аудиодорожка: русский
Режиссер: Андрей Соколов
Телеканал: RTG TV
Описание: Горячий Ключ - город-курорт в Краснодарском крае. Он очень удобно расположен - час езды до международного Краснодарского аэропорта и каких-то 65 километров до Черноморского побережья. Главная городская достопримечательность - Целебный парк. Здесь находится то, что привлекает сюда людей со всей России - минеральный источник и многочисленные санатории. Курортом местечко Горячий Ключ стал в 1864 году. Но о лечебных свойствах здешних источников люди знали еще в древности. Еще две тысячи лет назад горцы вырубали в скалах или выкапывали в земле первые «ванны». В исторических хрониках подчеркивается, что страждущие проводили в таких купальнях много часов - до полного изнеможения. Потом приходили в себя и снова повторяли процедуру. Большое количество таких импровизированных купален находилось на Минеральной поляне. Здесь целебные воды выходили на поверхность. Сейчас тут единственный в России памятник минеральной воде. Другая достопримечательность - Дантово ущелье. Каменные ступени в него прорубили казаки в 19 веке. Стены из песчаника стали своеобразной галерей народного творчества. Здесь высечен портрет Данте, неизвестного римского легионера и многое другое. Рисунки на память от нескольких поколений курортников и исцелившихся местных жителей. У входа в Дантово ущелье - Иверская часовня. Рядом - пересохший источник.Когда-то сюда приходили сотни паломников. Они просили помощи у образа Божьей матери и забирали с собой освященную воду. Ведущая RTG TV Ирина Пудова узнала почему пересох Иверский источник, зарядилась энергией от древнего шапсугского столба и получила в подарок от художника собственный портрет.
качество: SATRip
формат: AVI
Видео: MPEG4, XviD, 704x528 (4:3), 25.000 fps, 1 649 Kbps (0.177 bit/pixel)
Аудио: MP3, 48.0 KHz, 2 ch, 128 Kbps, CBR
Код: Выделить всё
General
Complete name                            : C:\Users\User\Downloads\Прогулка по Горячему Ключу.avi
Format                                   : AVI
Format/Info                              : Audio Video Interleave
File size                                : 310 MiB
Duration                                 : 24mn 14s
Overall bit rate                         : 1 787 Kbps
Writing application                      : VirtualDubMod 1.5.10.3 | www.virtualdub-fr.org || (build 2550/release)
Writing library                          : VirtualDubMod build 2550/release
Video
ID                                       : 0
Format                                   : MPEG-4 Visual
Format profile                           : Advanced Simple@L5
Format settings, BVOP                    : 1
Format settings, QPel                    : No
Format settings, GMC                     : No warppoints
Format settings, Matrix                  : Default (H.263)
Codec ID                                 : XVID
Codec ID/Hint                            : XviD
Duration                                 : 24mn 14s
Bit rate                                 : 1 649 Kbps
Width                                    : 704 pixels
Height                                   : 528 pixels
Display aspect ratio                     : 4:3
Frame rate                               : 25.000 fps
Color space                              : YUV
Chroma subsampling                       : 4:2:0
Bit depth                                : 8 bits
Scan type                                : Progressive
Compression mode                         : Lossy
Bits/(Pixel*Frame)                       : 0.177
Stream size                              : 286 MiB (92%)
Writing library                          : XviD 1.2.1 (UTC 2008-12-04)
Audio
ID                                       : 1
Format                                   : MPEG Audio
Format version                           : Version 1
Format profile                           : Layer 3
Codec ID                                 : 55
Codec ID/Hint                            : MP3
Duration                                 : 24mn 14s
Bit rate mode                            : Constant
Bit rate                                 : 128 Kbps
Channel(s)                               : 2 channels
Sampling rate                            : 48.0 KHz
Compression mode                         : Lossy
Stream size                              : 22.2 MiB (7%)
Alignment                                : Aligned on interleaves
Interleave, duration                     : 40 ms (1.00 video frame)
Interleave, preload duration             : 504 ms
Writing library                          : LAME3.98r
Encoding settings                        : -m s -V 4 -q 2 -lowpass 17 -b 128
 
Не забывайте говорить Спасибо. Не уходите с раздачи!   
Торрент: Зарегистрирован [05 май 2018, 22:12] Для скачивания .torrent
необходима регистрация
Или скачать с помощью
MediaGet
Статус:
Проверен
 
.torrent скачан: 0 раз
Хэш: c1dfcb7a307cc75e9d18208881a83874894e30e8
Размер: 309.9 МБ (324 950 016 байт)
Стать Автором раздачи
 
 
Раздал: 0 байт
Скачал: 0 байт
Ратио: Inf.
Сообщения: 487468
Зарегистрирован: 17 апр 2014, 13:57


  • Похожие торренты
    Ответы
    Просмотры
    Последнее сообщение

Вернуться в Документальные фильмы и телепередачи

Ресурс не предоставляет электронные версии произведений, а занимается лишь коллекционированием и каталогизацией ссылок, присылаемых и публикуемых на форуме нашими читателями. Если вы являетесь правообладателем какого-либо представленного материала и не желаете чтобы ссылка на него находилась в нашем каталоге, свяжитесь с нами и мы незамедлительно удалим её. Файлы для обмена на трекере предоставлены пользователями сайта, и администрация не несёт ответственности за их содержание. Просьба не заливать файлы, защищенные авторскими правами, а также файлы нелегального содержания!
cron