Деструктивные семейные отношения как причины зависимостей (Отдел по противодействию наркомании и алкоголизму Санкт-Петербургской епархии) [2007, Православно-познавательный, DVD5]

 
 Статистика раздачи 
Размер: 3.73 ГБ   |  Зарегистрирован: 05 май 2018, 17:16   |   .torrent скачан: 0 раз
Сидеров: 1  [ 0 байт/сек ]     Личеров: 0  [ 0 байт/сек ]  
  

Деструктивные семейные отношения как причины зависимостей (Отдел по противодействию наркомании и алкоголизму Санкт-Петербургской епархии) [2007, Православно-познавательный, DVD5]

Сообщение Nakazhu » 05 май 2018, 17:16

Деструктивные семейные отношения как причины зависимостей
Год выпуска: 2007
Страна: Россия
Жанр: Православно-познавательный
Продолжительность: 01:49:36
Перевод: Не требуется
Русские субтитры: нет
Оригинальная аудиодорожка: русский
Режиссер: Отдел по противодействию наркомании и алкоголизму Санкт-Петербургской епархии
Описание: В дореволюционный период количество разводов равнялась - 3%, сегодня эта цифра составляет - 75%, то есть в трех семьях две разводятся. Институт семьи разрушается. Разрушаются и правильные отношения между супругами.
После революции произошла ломка всех стереотипов, всех духовных установок и самих людей. Главный смысл человеческого бытия как спасение души, самосовершенствование, приближение к Богу, был потерян. Было объявлено, что Бога нет. А раз Бога нет, то все дозволено: пей, гуляй, веселись и т. д. Если Бога нет, то человек сам становиться Богом, и начинает жить для своих удовольствий и прежде всего плотских и психических.
Смена смысловых устроений привели к распаду института семьи.
Употребление спиртного в 1905 г. на одного человека равнялась 3-5 л., сегодня эта цифра превышает 20 л. на одного человека в год.
В одной только Московской Области, за один год, от передозировки погибает более 3000 человек. Средний возраст от 15 – 35 лет. За 10 лет войны в Афганистане, погибло меньше людей.
Как следствие вымирание и деградация народа и нации!
Семинар проводили руководитель «Школы трезвения» при Отделе по противодействию наркомании и алкоголизму Санкт-Петербургской епархии, Владимир Анатольевич Цыганков, а также, автор многих книг по семейным отношениям и преодолению зависимостей, священник Протоиерей Алексий Мороз, который является руководителем Епархиального амбулаторно-консультационного центра «Воскресение».
На семинаре рассматривались темы:
1. Какой должна быть настоящая семья;
2. Какие должны быть отношения между родителями и детьми;
3. Современное состояние семьи;
4. Пороки и негативные явления, которые разрушают семью, приводят к многочисленным разводам;
5. Причины алкогольной и наркотической зависимости, игровой зависимости, которые часто лежат в основе неправильных внутрисемейных
отношениях между супругом и супругой, между родителями и детьми;
6. Поведенческие ошибки в современных семьях;
7. Назначение мужчины и женщины в брачном союзе;
8. Какова цель и назначение брака.
II. Созависимость в семье:
1. Кризисные отношения в семье;
2. Отношения в семье, когда один из ее членов употребляет наркотики или злоупотребляет алкоголем;
3. Как помочь пьющему члену семьи или зависимому от наркотиков;
4. Сущность страсти наркомании и алкоголизма;
5. Состояние ребенка - показатель благополучия или неблагополучия его семьи;
6. Выход из созависимости;
7. Духовные аспекты оздоровления личности и семьи.
Брак один раз и на всю жизнь, как одна Ева для одного Адама, как одна Церковь для одного Христа, как один муж для одной жены!
Доп. информация: Меню нет, разбиение на главы отсутствует.
Сэмпл: https://cloud.mail.ru/public/9QdG/Gm1hXEopF
Качество: DVD5
Формат: DVD5 Video
Видео: 4506 Кбит/сек, PAL 720*576 (4:3), 25,000 кадров/сек, MPEG2
Аудио: Русский, 256 Кбит/сек, 48,0 КГц, 16 бит, 2 канала, AC-3
Код: Выделить всё
Title: Деструктивные семейные отношения как причины зависимостей
Size: 3.73 Gb ( 3 907 948 KBytes ) - DVD-5
Enabled regions: 1, 2, 3, 4, 5, 6, 7, 8
VTS_01 :
  Play Length: 01:49:36
  Video: PAL 4:3 (720x576) VBR
  Audio:
      Russian (Dolby AC3, 2 ch)
Menu Video:
      PAL 4:3 (720x576) VBR
      Auto Pan&Scan, Auto Letterboxed
Menu  Language Unit :
      Root Menu
Код: Выделить всё
Общее
Полное имя                               : O:\MONAR\Документальные фильмы\Познавательные фильмы\Деструктивные семейные отношения как причины зависимостей\VIDEO_TS\VIDEO_TS.BUP
Формат                                   : DVD Video
Профиль формата                          : Menu
Размер файла                             : 12,0 Кбайт
Режим общего битрейта                    : Переменный
FileExtension_Invalid                    : ifo
Видео
Идентификатор                            : 224 (0xE0)
Формат                                   : MPEG Video
Версия формата                           : Version 2
Вид битрейта                             : Переменный
Ширина                                   : 720 пикселей
Высота                                   : 576 пикселей
Соотношение сторон                       : 4:3
Частота кадров                           : 25,000 кадров/сек
Стандарт вещания                         : PAL
Метод сжатия                             : С потерями
Общее
Полное имя                               : O:\MONAR\Документальные фильмы\Познавательные фильмы\Деструктивные семейные отношения как причины зависимостей\VIDEO_TS\VIDEO_TS.IFO
Формат                                   : DVD Video
Профиль формата                          : Menu
Размер файла                             : 12,0 Кбайт
Режим общего битрейта                    : Переменный
Видео
Идентификатор                            : 224 (0xE0)
Формат                                   : MPEG Video
Версия формата                           : Version 2
Вид битрейта                             : Переменный
Ширина                                   : 720 пикселей
Высота                                   : 576 пикселей
Соотношение сторон                       : 4:3
Частота кадров                           : 25,000 кадров/сек
Стандарт вещания                         : PAL
Метод сжатия                             : С потерями
Общее
Полное имя                               : O:\MONAR\Документальные фильмы\Познавательные фильмы\Деструктивные семейные отношения как причины зависимостей\VIDEO_TS\VIDEO_TS.VOB
Формат                                   : MPEG-PS
Размер файла                             : 48,0 Кбайт
Продолжительность                        : 40 мс.
Режим общего битрейта                    : Переменный
Общий поток                              : 9830 Кбит/сек
Видео
Идентификатор                            : 224 (0xE0)
Формат                                   : MPEG Video
Версия формата                           : Version 2
Профиль формата                          : Main@Main
Параметр BVOP формата                    : Нет
Параметр матрицы формата                 : По умолчанию
Продолжительность                        : 40 мс.
Вид битрейта                             : Переменный
Максимальный битрейт                     : 9000 Кбит/сек
Ширина                                   : 720 пикселей
Высота                                   : 576 пикселей
Соотношение сторон                       : 4:3
Частота кадров                           : 25,000 кадров/сек
Стандарт вещания                         : PAL
Цветовое пространство                    : YUV
Субдискретизация насыщенности            : 4:2:0
Битовая глубина                          : 8 бит
Тип развёртки                            : Прогрессивная
Порядок развёртки                        : Верхнее поле первое
Метод сжатия                             : С потерями
Временной код первого кадра              : 00:00:00:00
Оригинал временного кода                 : Group of pictures header
Основные цвета                           : BT.601 PAL
Характеристики трансфера                 : BT.470 System B/G
Коэффициенты матрицы                     : BT.470 System B/G
Меню
Общее
Полное имя                               : O:\MONAR\Документальные фильмы\Познавательные фильмы\Деструктивные семейные отношения как причины зависимостей\VIDEO_TS\VTS_01_0.BUP
Формат                                   : DVD Video
Профиль формата                          : Program
Размер файла                             : 72,0 Кбайт
Продолжительность                        : 1 ч. 49 м.
Режим общего битрейта                    : Переменный
Общий поток                              : 90 бит/сек
FileExtension_Invalid                    : ifo
Видео
Идентификатор                            : 224 (0xE0)
Формат                                   : MPEG Video
Версия формата                           : Version 2
Продолжительность                        : 1 ч. 49 м.
Вид битрейта                             : Переменный
Ширина                                   : 720 пикселей
Высота                                   : 576 пикселей
Соотношение сторон                       : 4:3
Частота кадров                           : 25,000 кадров/сек
Стандарт вещания                         : PAL
Метод сжатия                             : С потерями
Аудио
Идентификатор                            : 128 (0x80)
Формат                                   : AC-3
Формат/Информация                        : Audio Coding 3
Продолжительность                        : 1 ч. 49 м.
Каналы                                   : 2 канала
Частота                                  : 48,0 КГц
Метод сжатия                             : С потерями
Язык                                     : Russian
Меню
Продолжительность                        : 1 ч. 49 м.
00:00:00.000                             : Chapter 1
List (Audio)                             : 0
Общее
Полное имя                               : O:\MONAR\Документальные фильмы\Познавательные фильмы\Деструктивные семейные отношения как причины зависимостей\VIDEO_TS\VTS_01_0.IFO
Формат                                   : DVD Video
Профиль формата                          : Program
Размер файла                             : 72,0 Кбайт
Продолжительность                        : 1 ч. 49 м.
Режим общего битрейта                    : Переменный
Общий поток                              : 90 бит/сек
Видео
Идентификатор                            : 224 (0xE0)
Формат                                   : MPEG Video
Версия формата                           : Version 2
Продолжительность                        : 1 ч. 49 м.
Вид битрейта                             : Переменный
Ширина                                   : 720 пикселей
Высота                                   : 576 пикселей
Соотношение сторон                       : 4:3
Частота кадров                           : 25,000 кадров/сек
Стандарт вещания                         : PAL
Метод сжатия                             : С потерями
Аудио
Идентификатор                            : 128 (0x80)
Формат                                   : AC-3
Формат/Информация                        : Audio Coding 3
Продолжительность                        : 1 ч. 49 м.
Каналы                                   : 2 канала
Частота                                  : 48,0 КГц
Метод сжатия                             : С потерями
Язык                                     : Russian
Меню
Продолжительность                        : 1 ч. 49 м.
00:00:00.000                             : Chapter 1
List (Audio)                             : 0
Общее
Полное имя                               : O:\MONAR\Документальные фильмы\Познавательные фильмы\Деструктивные семейные отношения как причины зависимостей\VIDEO_TS\VTS_01_1.VOB
Формат                                   : MPEG-PS
Размер файла                             : 1000 Мбайт
Продолжительность                        : 28 м. 44 с.
Режим общего битрейта                    : Переменный
Общий поток                              : 4866 Кбит/сек
Видео
Идентификатор                            : 224 (0xE0)
Формат                                   : MPEG Video
Версия формата                           : Version 2
Профиль формата                          : Main@Main
Настройки формата                        : BVOP
Параметр BVOP формата                    : Да
Параметр матрицы формата                 : По умолчанию
Параметр GOP формата                     : M=3, N=12
Структура изображения                    : Frame
Продолжительность                        : 28 м. 44 с.
Вид битрейта                             : Переменный
Битрейт                                  : 4506 Кбит/сек
Ширина                                   : 720 пикселей
Высота                                   : 576 пикселей
Соотношение сторон                       : 4:3
Частота кадров                           : 25,000 кадров/сек
Стандарт вещания                         : PAL
Цветовое пространство                    : YUV
Субдискретизация насыщенности            : 4:2:0
Битовая глубина                          : 8 бит
Тип развёртки                            : Чересстрочная
Порядок развёртки                        : Верхнее поле первое
Метод сжатия                             : С потерями
Бит/(Пиксели*Кадры)                      : 0.435
Временной код первого кадра              : 00:00:00:00
Оригинал временного кода                 : Group of pictures header
GOP, открыто/закрыто                     : Закрыто
Размер потока                            : 928 Мбайт (93%)
Основные цвета                           : BT.601 PAL
Характеристики трансфера                 : BT.470 System B/G
Коэффициенты матрицы                     : BT.601
Аудио
Идентификатор                            : 189 (0xBD)-128 (0x80)
Формат                                   : AC-3
Формат/Информация                        : Audio Coding 3
Режим смешивания                         : DVD-Video
Продолжительность                        : 28 м. 43 с.
Вид битрейта                             : Постоянный
Битрейт                                  : 256 Кбит/сек
Каналы                                   : 2 канала
Расположение каналов                     : Front: L R
Частота                                  : 48,0 КГц
Частота кадров                           : 31,250 кадров/сек (1536 SPF)
Битовая глубина                          : 16 бит
Метод сжатия                             : С потерями
Размер потока                            : 52,6 Мбайт (5%)
ServiceKind/String                       : Complete Main
Меню
Общее
Полное имя                               : O:\MONAR\Документальные фильмы\Познавательные фильмы\Деструктивные семейные отношения как причины зависимостей\VIDEO_TS\VTS_01_2.VOB
Формат                                   : MPEG-PS
Размер файла                             : 1000 Мбайт
Продолжительность                        : 28 м. 43 с.
Режим общего битрейта                    : Переменный
Общий поток                              : 4868 Кбит/сек
Видео
Идентификатор                            : 224 (0xE0)
Формат                                   : MPEG Video
Версия формата                           : Version 2
Профиль формата                          : Main@Main
Настройки формата                        : BVOP
Параметр BVOP формата                    : Да
Параметр матрицы формата                 : По умолчанию
Параметр GOP формата                     : M=3, N=12
Структура изображения                    : Frame
Продолжительность                        : 28 м. 43 с.
Вид битрейта                             : Переменный
Битрейт                                  : 4506 Кбит/сек
Ширина                                   : 720 пикселей
Высота                                   : 576 пикселей
Соотношение сторон                       : 4:3
Частота кадров                           : 25,000 кадров/сек
Стандарт вещания                         : PAL
Цветовое пространство                    : YUV
Субдискретизация насыщенности            : 4:2:0
Битовая глубина                          : 8 бит
Тип развёртки                            : Чересстрочная
Порядок развёртки                        : Верхнее поле первое
Метод сжатия                             : С потерями
Бит/(Пиксели*Кадры)                      : 0.435
Временной код первого кадра              : 00:28:46:32
Оригинал временного кода                 : Group of pictures header
GOP, открыто/закрыто                     : Закрыто
Размер потока                            : 928 Мбайт (93%)
Основные цвета                           : BT.601 PAL
Характеристики трансфера                 : BT.470 System B/G
Коэффициенты матрицы                     : BT.601
Аудио
Идентификатор                            : 189 (0xBD)-128 (0x80)
Формат                                   : AC-3
Формат/Информация                        : Audio Coding 3
Режим смешивания                         : DVD-Video
Продолжительность                        : 28 м. 43 с.
Вид битрейта                             : Постоянный
Битрейт                                  : 256 Кбит/сек
Каналы                                   : 2 канала
Расположение каналов                     : Front: L R
Частота                                  : 48,0 КГц
Частота кадров                           : 31,250 кадров/сек (1536 SPF)
Битовая глубина                          : 16 бит
Метод сжатия                             : С потерями
Задержка видео                           : -160 мс.
Размер потока                            : 52,6 Мбайт (5%)
ServiceKind/String                       : Complete Main
Меню
Общее
Полное имя                               : O:\MONAR\Документальные фильмы\Познавательные фильмы\Деструктивные семейные отношения как причины зависимостей\VIDEO_TS\VTS_01_3.VOB
Формат                                   : MPEG-PS
Размер файла                             : 1000 Мбайт
Продолжительность                        : 28 м. 43 с.
Режим общего битрейта                    : Переменный
Общий поток                              : 4868 Кбит/сек
Видео
Идентификатор                            : 224 (0xE0)
Формат                                   : MPEG Video
Версия формата                           : Version 2
Профиль формата                          : Main@Main
Настройки формата                        : BVOP
Параметр BVOP формата                    : Да
Параметр матрицы формата                 : По умолчанию
Параметр GOP формата                     : M=3, N=12
Структура изображения                    : Frame
Продолжительность                        : 28 м. 43 с.
Вид битрейта                             : Переменный
Битрейт                                  : 4506 Кбит/сек
Ширина                                   : 720 пикселей
Высота                                   : 576 пикселей
Соотношение сторон                       : 4:3
Частота кадров                           : 25,000 кадров/сек
Стандарт вещания                         : PAL
Цветовое пространство                    : YUV
Субдискретизация насыщенности            : 4:2:0
Битовая глубина                          : 8 бит
Тип развёртки                            : Чересстрочная
Порядок развёртки                        : Верхнее поле первое
Метод сжатия                             : С потерями
Бит/(Пиксели*Кадры)                      : 0.435
Временной код первого кадра              : 00:57:24:40
Оригинал временного кода                 : Group of pictures header
GOP, открыто/закрыто                     : Закрыто
Размер потока                            : 928 Мбайт (93%)
Основные цвета                           : BT.601 PAL
Характеристики трансфера                 : BT.470 System B/G
Коэффициенты матрицы                     : BT.601
Аудио
Идентификатор                            : 189 (0xBD)-128 (0x80)
Формат                                   : AC-3
Формат/Информация                        : Audio Coding 3
Режим смешивания                         : DVD-Video
Продолжительность                        : 28 м. 43 с.
Вид битрейта                             : Постоянный
Битрейт                                  : 256 Кбит/сек
Каналы                                   : 2 канала
Расположение каналов                     : Front: L R
Частота                                  : 48,0 КГц
Частота кадров                           : 31,250 кадров/сек (1536 SPF)
Битовая глубина                          : 16 бит
Метод сжатия                             : С потерями
Задержка видео                           : -160 мс.
Размер потока                            : 52,6 Мбайт (5%)
ServiceKind/String                       : Complete Main
Меню
Общее
Полное имя                               : O:\MONAR\Документальные фильмы\Познавательные фильмы\Деструктивные семейные отношения как причины зависимостей\VIDEO_TS\VTS_01_4.VOB
Формат                                   : MPEG-PS
Размер файла                             : 816 Мбайт
Продолжительность                        : 23 м. 26 с.
Режим общего битрейта                    : Переменный
Общий поток                              : 4868 Кбит/сек
Видео
Идентификатор                            : 224 (0xE0)
Формат                                   : MPEG Video
Версия формата                           : Version 2
Профиль формата                          : Main@Main
Настройки формата                        : BVOP
Параметр BVOP формата                    : Да
Параметр матрицы формата                 : По умолчанию
Параметр GOP формата                     : M=3, N=12
Структура изображения                    : Frame
Продолжительность                        : 23 м. 26 с.
Вид битрейта                             : Переменный
Битрейт                                  : 4506 Кбит/сек
Ширина                                   : 720 пикселей
Высота                                   : 576 пикселей
Соотношение сторон                       : 4:3
Частота кадров                           : 25,000 кадров/сек
Стандарт вещания                         : PAL
Цветовое пространство                    : YUV
Субдискретизация насыщенности            : 4:2:0
Битовая глубина                          : 8 бит
Тип развёртки                            : Чересстрочная
Порядок развёртки                        : Верхнее поле первое
Метод сжатия                             : С потерями
Бит/(Пиксели*Кадры)                      : 0.435
Временной код первого кадра              : 01:26:10:48
Оригинал временного кода                 : Group of pictures header
GOP, открыто/закрыто                     : Закрыто
Размер потока                            : 757 Мбайт (93%)
Основные цвета                           : BT.601 PAL
Характеристики трансфера                 : BT.470 System B/G
Коэффициенты матрицы                     : BT.601
Аудио
Идентификатор                            : 189 (0xBD)-128 (0x80)
Формат                                   : AC-3
Формат/Информация                        : Audio Coding 3
Режим смешивания                         : DVD-Video
Продолжительность                        : 23 м. 26 с.
Вид битрейта                             : Постоянный
Битрейт                                  : 256 Кбит/сек
Каналы                                   : 2 канала
Расположение каналов                     : Front: L R
Частота                                  : 48,0 КГц
Частота кадров                           : 31,250 кадров/сек (1536 SPF)
Битовая глубина                          : 16 бит
Метод сжатия                             : С потерями
Задержка видео                           : -192 мс.
Размер потока                            : 42,9 Мбайт (5%)
ServiceKind/String                       : Complete Main
Меню
 
Не забывайте говорить Спасибо. Не уходите с раздачи!   
Торрент: Зарегистрирован [05 май 2018, 17:16] Для скачивания .torrent
необходима регистрация
Или скачать с помощью
MediaGet
Статус:
Проверен
 
.torrent скачан: 0 раз
Хэш: 291b6c83d6b01bc017b2fc70ae389308af178c50
Размер: 3.73 ГБ (4 001 775 616 байт)
Стать Автором раздачи
 
 
Раздал: 0 байт
Скачал: 0 байт
Ратио: Inf.
Сообщения: 487468
Зарегистрирован: 17 апр 2014, 13:57


  • Похожие торренты
    Ответы
    Просмотры
    Последнее сообщение

Вернуться в Вера и религия (видео)

Ресурс не предоставляет электронные версии произведений, а занимается лишь коллекционированием и каталогизацией ссылок, присылаемых и публикуемых на форуме нашими читателями. Если вы являетесь правообладателем какого-либо представленного материала и не желаете чтобы ссылка на него находилась в нашем каталоге, свяжитесь с нами и мы незамедлительно удалим её. Файлы для обмена на трекере предоставлены пользователями сайта, и администрация не несёт ответственности за их содержание. Просьба не заливать файлы, защищенные авторскими правами, а также файлы нелегального содержания!
cron