[TR24][CO] Geoffrey Landers — "1 by 1" (Anthology) — 2017 (Minimal Synth, Minimal Wave)

 
 Статистика раздачи 
Размер: 858.11 МБ   |  Зарегистрирован: 05 май 2018, 11:20   |   .torrent скачан: 0 раз
Сидеров: 1  [ 0 байт/сек ]     Личеров: 0  [ 0 байт/сек ]  
  

[TR24][CO] Geoffrey Landers — "1 by 1" (Anthology) — 2017 (Minimal Synth, Minimal Wave)

Сообщение Nakazhu » 05 май 2018, 11:20

Geoffrey Landers
"1 by 1" —
2017

Страна: United States of America (Denver, CO)
Жанр: Minimal Synth | Minimal Wave
Издание: Anthology (1979 - 1987)
Источник: Redacted | Bandcamp
Издатель: Music From Memory
Номер по каталогу: MFM025
Количество каналов: 2.0
Контейнер: FLAC (*.flac)
Битрейт аудио: lossless
Водяные знаки: нет
Разрядность: 24bit
Частота: 44.1 kHz
Тип рипа: tracks
Формат: PCM
.
TRACK LISTING
01. So (03:44)
02. Logarithms (03:59)
03. Breedlove (04:34)
04. Sex Music (05:55)
05. Carry Me Off (03:03)
06. Say You'll Say So (05:10)
07. Camella (04:22)
08. It's Telling on Me (03:08)
09. Sandbars Alone (03:38)
10. Don't Push Me Away (03:25)
11. Anodyne (02:34)
12. Minored Birds (05:44)
13. Brians Having a Party (02:04)
14. Nisei (05:11)
15. Smooth Edges (03:06)
16. Overhead Glass (02:45)
17. The Alluring Pause (06:22)
18. Excerpts from Ground Zero (04:47)
19. 1 by 1 (04:51)
20. Mack (06:04)
total length (01:24:17)
Код: Выделить всё
foobar2000 1.3.9 / Dynamic Range Meter 1.1.1
log date: 2018-05-04 21:46:44
--------------------------------------------------------------------------------
Analyzed: Geoffrey Landers / 1 by 1
--------------------------------------------------------------------------------
DR         Peak         RMS     Duration Track
--------------------------------------------------------------------------------
DR12      -0.14 dB   -13.95 dB      3:43 01-So
DR13      -0.14 dB   -14.85 dB      3:59 02-Logarithms
DR11      -0.14 dB   -11.99 dB      4:33 03-Breedlove
DR11      -0.14 dB   -11.58 dB      5:54 04-Sex Music
DR10      -0.14 dB   -11.05 dB      3:03 05-Carry Me Off
DR9       -0.14 dB   -11.11 dB      5:09 06-Say You'll Say So
DR9       -0.14 dB   -11.02 dB      4:22 07-Camella
DR11      -0.14 dB   -12.94 dB      3:08 08-It's Telling on Me
DR10      -0.14 dB   -12.10 dB      3:37 09-Sandbars Alone
DR13      -0.14 dB   -14.80 dB      3:25 10-Don't Push Me Away
DR7       -3.91 dB   -12.89 dB      2:33 11-Anodyne
DR13      -0.14 dB   -15.74 dB      5:43 12-Minored Birds
DR12      -0.60 dB   -18.55 dB      2:03 13-Brians Having a Party
DR14      -2.70 dB   -20.16 dB      5:11 14-Nisei
DR9       -3.46 dB   -14.59 dB      3:06 15-Smooth Edges
DR8       -1.58 dB   -12.98 dB      2:44 16-Overhead Glass
DR10      -0.15 dB   -14.39 dB      6:22 17-The Alluring Pause
DR9       -0.14 dB   -10.25 dB      4:47 18-Excerpts from Ground Zero
DR9       -0.14 dB   -11.37 dB      4:50 19-1 by 1
DR11      -0.14 dB   -13.49 dB      6:04 20-Mack
--------------------------------------------------------------------------------
Number of tracks:  20
Official DR value: DR10
Samplerate:        44100 Hz
Channels:          2
Bits per sample:   24
Bitrate:           1448 kbps
Codec:             FLAC
================================================================================






 
Не забывайте говорить Спасибо. Не уходите с раздачи!   
Торрент: Зарегистрирован [05 май 2018, 11:20] Скачать торрент
Скачать торрент
[ Размер 18.34 КБ / Просмотров 8 ]
Статус:
Проверен
 
.torrent скачан: 0 раз
Хэш: ea949d47d20ed6ca26e9d47cfb30c5402c1c0d27
Размер: 858.11 МБ (899 790 265 байт)
Стать Автором раздачи
 
 
Раздал: 0 байт
Скачал: 0 байт
Ратио: Inf.
Сообщения: 487468
Зарегистрирован: 17 апр 2014, 13:57


  • Похожие торренты
    Ответы
    Просмотры
    Последнее сообщение

Вернуться в Электронная Музыка (Hi-Res stereo)

Ресурс не предоставляет электронные версии произведений, а занимается лишь коллекционированием и каталогизацией ссылок, присылаемых и публикуемых на форуме нашими читателями. Если вы являетесь правообладателем какого-либо представленного материала и не желаете чтобы ссылка на него находилась в нашем каталоге, свяжитесь с нами и мы незамедлительно удалим её. Файлы для обмена на трекере предоставлены пользователями сайта, и администрация не несёт ответственности за их содержание. Просьба не заливать файлы, защищенные авторскими правами, а также файлы нелегального содержания!
cron