2018 World Team Table Tennis Championships (Halmstad, SWE) / Командный чемпионат мира 2018 / Мужчины / 1/8 финала / Швеция - Тайбэй / SVT HD [03.05.2018, Настольный теннис, HDTV/720p/50fps, TS/H.264, SE]

 
 Статистика раздачи 
Размер: 15.38 ГБ   |  Зарегистрирован: 03 май 2018, 21:01   |   .torrent скачан: 0 раз
Сидеров: 1  [ 0 байт/сек ]     Личеров: 0  [ 0 байт/сек ]  
  

2018 World Team Table Tennis Championships (Halmstad, SWE) / Командный чемпионат мира 2018 / Мужчины / 1/8 финала / Швеция - Тайбэй / SVT HD [03.05.2018, Настольный теннис, HDTV/720p/50fps, TS/H.264, SE]

Сообщение Nakazhu » 03 май 2018, 21:01

2018 World Team Table Tennis Championships
Мужчины / 1/8 финала / Швеция - Тайбэй
Год выпуска: 03.05.2018
Вид спорта: Настольный теннис
Комментарий: Профессиональный
Язык комментариев: Шведский
Описание: Командный чемпионат мира 2018 по настольному теннису в Швеции. Групповой этап.
3 мая 2018, четверг, 17:00 МСК. Мужчины. 1/8 финала. Швеция - Тайбэй.
Автор записей: Настольный Теннисист
Качество: HDTV
Формат: TS
Видео кодек: H.264
Аудио кодек: AС3/MP2
Видео: MPEG4 Video (H.264) 1280x720 (16:9) 50fps 9564kbps
Аудио 1: Dolby AC3 48000Hz 2ch 448kbps
Аудио 2: MPEG Audio 48000Hz 2ch 256kbps
Код: Выделить всё
General
ID                                       : 1 (0x1)
Complete name                            : F:\Table Tennis\2018 WORLD TEAM TABLE TENNIS CHAMPIONSHIPS STV HD\09 MT ROUND OF 16 SWE - TPE. Злобный.ts
Format                                   : MPEG-TS
File size                                : 15.4 GiB
Duration                                 : 3 h 23 min
Overall bit rate mode                    : Variable
Overall bit rate                         : 10.8 Mb/s
Video
ID                                       : 1034 (0x40A)
Menu ID                                  : 3801 (0xED9)
Format                                   : AVC
Format/Info                              : Advanced Video Codec
Format profile                           : High@L3.2
Format settings, CABAC                   : Yes
Format settings, RefFrames               : 3 frames
Codec ID                                 : 27
Duration                                 : 3 h 23 min
Bit rate                                 : 9 564 kb/s
Width                                    : 1 280 pixels
Height                                   : 720 pixels
Display aspect ratio                     : 16:9
Frame rate                               : 50.000 FPS
Standard                                 : Component
Color space                              : YUV
Chroma subsampling                       : 4:2:0
Bit depth                                : 8 bits
Scan type                                : Progressive
Bits/(Pixel*Frame)                       : 0.208
Stream size                              : 13.6 GiB (88%)
Color range                              : Limited
Color primaries                          : BT.709
Transfer characteristics                 : BT.709
Matrix coefficients                      : BT.709
Audio #1
ID                                       : 3024 (0xBD0)
Menu ID                                  : 3801 (0xED9)
Format                                   : AC-3
Format/Info                              : Audio Coding 3
Format settings, Endianness              : Big
Codec ID                                 : 6
Duration                                 : 3 h 23 min
Bit rate mode                            : Constant
Bit rate                                 : 448 kb/s
Channel(s)                               : 2 channels
Channel positions                        : Front: L R
Sampling rate                            : 48.0 kHz
Frame rate                               : 31.250 FPS (1536 SPF)
Bit depth                                : 16 bits
Compression mode                         : Lossy
Stream size                              : 653 MiB (4%)
Language                                 : Swedish
Service kind                             : Complete Main
Audio #2
ID                                       : 3025 (0xBD1)
Menu ID                                  : 3801 (0xED9)
Format                                   : MPEG Audio
Format version                           : Version 1
Format profile                           : Layer 2
Codec ID                                 : 3
Duration                                 : 3 h 23 min
Bit rate mode                            : Constant
Bit rate                                 : 256 kb/s
Channel(s)                               : 2 channels
Sampling rate                            : 48.0 kHz
Compression mode                         : Lossy
Stream size                              : 373 MiB (2%)
Language                                 : Swedish
Other
ID                                       : 3026 (0xBD2)-100
Menu ID                                  : 3801 (0xED9)
Format                                   : Teletext
Language                                 : Swedish
Мужчины. 1/8 финала

Швеция - Тайбэй
Состав Швеция:
Состав Тайбэй:
03:23:44
 
Не забывайте говорить Спасибо. Не уходите с раздачи!   
Торрент: Зарегистрирован [03 май 2018, 21:01] Скачать торрент
Скачать торрент
[ Размер 77.4 КБ / Просмотров 7 ]
Статус:
Проверен
 
.torrent скачан: 0 раз
Хэш: 7434db6cdba7b56ffd972cdd0a5afec7a5ea6a28
Размер: 15.38 ГБ (16 517 242 712 байт)
Стать Автором раздачи
 
 
Раздал: 0 байт
Скачал: 0 байт
Ратио: Inf.
Сообщения: 487468
Зарегистрирован: 17 апр 2014, 13:57


  • Похожие торренты
    Ответы
    Просмотры
    Последнее сообщение

Вернуться в Бадминтон/Настольный теннис

Ресурс не предоставляет электронные версии произведений, а занимается лишь коллекционированием и каталогизацией ссылок, присылаемых и публикуемых на форуме нашими читателями. Если вы являетесь правообладателем какого-либо представленного материала и не желаете чтобы ссылка на него находилась в нашем каталоге, свяжитесь с нами и мы незамедлительно удалим её. Файлы для обмена на трекере предоставлены пользователями сайта, и администрация не несёт ответственности за их содержание. Просьба не заливать файлы, защищенные авторскими правами, а также файлы нелегального содержания!
cron