5 неизвестных / Unknown (Саймон Брэнд / Simon Brand) [2006, США, триллер, драма, криминал, детектив, BDRip] DVO (Ren-TV) + Original Eng

 
 Статистика раздачи 
Размер: 1.38 ГБ   |  Зарегистрирован: 01 май 2018, 09:43   |   .torrent скачан: 0 раз
Сидеров: 1  [ 0 байт/сек ]     Личеров: 0  [ 0 байт/сек ]  
  

5 неизвестных / Unknown (Саймон Брэнд / Simon Brand) [2006, США, триллер, драма, криминал, детектив, BDRip] DVO (Ren-TV) + Original Eng

Сообщение Nakazhu » 01 май 2018, 09:43

5 неизвестных

Unknown
Год выпуска: 2006
Страна: США
Жанр: триллер, драма, криминал, детектив
Продолжительность: 01:25:16
Перевод: Профессиональный (двухголосый закадровый) - Ren-TV
Субтитры: отсутствуют
Оригинальная аудиодорожка: английский
Режиссёр: Саймон Брэнд: Simon Brand
В ролях: Джеймс Кэвизел, Грэг Киннер, Бриджет Мойнахан, Джо Пантольяно, Бэрри Пеппер, Джереми Систо, Питер Стормар.
О фильме: Пятеро мужчин приходят в себя на заброшенном, наглухо закрытом складе — один смертельно ранен и прикован наручниками к трубе, у второго сломан нос, третий связан, двое оставшихся — целы, в синяках и ссадинах. У каждого амнезия.
На столе — позавчерашняя газета со статьей на первой полосе о похищении двух богатых бизнесменов. Тем временем, на свободе полиция и жена одного из похищенных готовят выкуп, пытаясь заманить в ловушку главаря банды похитителей.
Похоже, на складе оказались заперты и преступники, и жертвы. Но кто из них кто? Неужели похитители связаны и прикованы, а те, кто пострадал меньше всего — жертвы, победившие и наказавшие злодеев? Или же разгадка находится за пределами заброшенного склада?

Данный перевод появляется на трекере впервые.
Перевод записан с телеканала "Новое телевидение" (Караганда). Качество звука весьма посредственное.
Роли озвучивали: Олег Куценко, Людмила Ильина.

Семпл: https://www.sendspace.com/file/pintwx
Качество: BDRip
Формат: AVI
Видео: XviD, 720х304 (2,35:1), 23,976 fps, ~1984 kbps, 0.378 bit/pixel
Аудио #1: [RUS] 48 kHz, AC3, 1 ch, 96 kbps
Аудио #2: [ENG] 48 kHz, AC3, 2 ch, 224 kbps
Код: Выделить всё
Общее
Полное имя                               : F:\5.neizvestnyh.2006.BDRip.DVO.Ren-TV.Eng.avi
Формат                                   : AVI
Формат/Информация                        : Audio Video Interleave
Размер файла                             : 1,38 Гбайт
Продолжительность                        : 1 ч. 25 м.
Общий поток                              : 2318 Кбит/сек
Программа кодирования                    : VirtualDubMod 1.5.10.2 (build 2540/release)
Библиотека кодирования                   : VirtualDubMod build 2540/release
Видео
Идентификатор                            : 0
Формат                                   : MPEG-4 Visual
Профиль формата                          : Advanced Simple@L5
Параметр BVOP формата                    : 1
Параметр QPel формата                    : Нет
Параметр GMC формата                     : Без точки перехода
Параметр матрицы формата                 : Выборочная
Идентификатор кодека                     : XVID
Идентификатор кодека/Подсказка           : XviD
Продолжительность                        : 1 ч. 25 м.
Битрейт                                  : 1984 Кбит/сек
Ширина                                   : 720 пикселей
Высота                                   : 304 пикселя
Соотношение сторон                       : 2,35:1
Частота кадров                           : 23,976 (24000/1001) кадра/сек
Цветовое пространство                    : YUV
Субдискретизация насыщенности            : 4:2:0
Битовая глубина                          : 8 бит
Тип развёртки                            : Прогрессивная
Метод сжатия                             : С потерями
Бит/(Пиксели*Кадры)                      : 0.378
Размер потока                            : 1,18 Гбайт (86%)
Библиотека кодирования                   : XviD 57
Аудио #1
Идентификатор                            : 1
Формат                                   : AC-3
Формат/Информация                        : Audio Coding 3
Параметр Endianness формата              : Big
Идентификатор кодека                     : 2000
Продолжительность                        : 1 ч. 25 м.
Вид битрейта                             : Постоянный
Битрейт                                  : 96,0 Кбит/сек
Каналы                                   : 1 канал
Расположение каналов                     : Front: C
Частота                                  : 48,0 КГц
Частота кадров                           : 31,250 кадров/сек (1536 SPF)
Битовая глубина                          : 16 бит
Метод сжатия                             : С потерями
Размер потока                            : 58,5 Мбайт (4%)
Выравнивание                             : Разделение по промежуткам
Продолжительность промежутка             : 42  мс. (1,00 видеокадр)
Время предзагрузки промежутка            : 500  мс.
ServiceKind/String                       : Complete Main
Аудио #2
Идентификатор                            : 2
Формат                                   : AC-3
Формат/Информация                        : Audio Coding 3
Параметр Endianness формата              : Big
Идентификатор кодека                     : 2000
Продолжительность                        : 1 ч. 25 м.
Вид битрейта                             : Постоянный
Битрейт                                  : 224 Кбит/сек
Каналы                                   : 2 канала
Расположение каналов                     : Front: L R
Частота                                  : 48,0 КГц
Частота кадров                           : 31,250 кадров/сек (1536 SPF)
Битовая глубина                          : 16 бит
Метод сжатия                             : С потерями
Размер потока                            : 137 Мбайт (10%)
Выравнивание                             : Разделение по промежуткам
Продолжительность промежутка             : 42  мс. (1,00 видеокадр)
Время предзагрузки промежутка            : 500  мс.
ServiceKind/String                       : Complete Main
 
Не забывайте говорить Спасибо. Не уходите с раздачи!   
Торрент: Зарегистрирован [01 май 2018, 09:43] Для скачивания .torrent
необходима регистрация
Или скачать с помощью
MediaGet
Статус:
Проверен
 
.torrent скачан: 0 раз
Хэш: da3fbca48f40239fac1984b8112abc42700c5cb7
Размер: 1.38 ГБ (1 482 401 792 байт)
Стать Автором раздачи
 
 
Раздал: 0 байт
Скачал: 0 байт
Ратио: Inf.
Сообщения: 458375
Зарегистрирован: 17 апр 2014, 13:57


  • Похожие торренты
    Ответы
    Просмотры
    Последнее сообщение

Вернуться в Зарубежные фильмы 2006-2010 года

Ресурс не предоставляет электронные версии произведений, а занимается лишь коллекционированием и каталогизацией ссылок, присылаемых и публикуемых на форуме нашими читателями. Если вы являетесь правообладателем какого-либо представленного материала и не желаете чтобы ссылка на него находилась в нашем каталоге, свяжитесь с нами и мы незамедлительно удалим её. Файлы для обмена на трекере предоставлены пользователями сайта, и администрация не несёт ответственности за их содержание. Просьба не заливать файлы, защищенные авторскими правами, а также файлы нелегального содержания!
cron