Прогулка по Ставрополю (Алексей Костин) [2010, путешествия и туризм, SATRip]

 
 Статистика раздачи 
Размер: 289.83 МБ   |  Зарегистрирован: 30 апр 2018, 23:26   |   .torrent скачан: 0 раз
Сидеров: 1  [ 0 байт/сек ]     Личеров: 0  [ 0 байт/сек ]  
  

Прогулка по Ставрополю (Алексей Костин) [2010, путешествия и туризм, SATRip]

Сообщение Nakazhu » 30 апр 2018, 23:26

Прогулка по Ставрополю
Дата/Год выпуска: 2010
Страна
: Россия
Жанр: путешествия и туризм
Продолжительность: 00:26:20
Перевод: Не требуется
Русские субтитры: нет
Оригинальная аудиодорожка: русский
Режиссер: Алексей Костин
Телеканал: RTG TV
Описание: Ставрополь создавался как город-крепость часть Азово-Моздокской оборонительной линии. Он должен был защищать границы Российской империи и поддерживать продвижение войск на Кавказ. Но на деле, отбивать атаку крепостному гарнизону пришлось лишь однажды. 200 казаков легко справились с многочисленным горским отрядом. Уже к концу 18 века город стал прежде всего важным экономическим центром региона. Однако, заселены эти земли были задолго до прихода русской армии. Первые следы поселений, которые обнаружили археологи, относятся к четвертому тысячелетию до нашей эры. По данным ученых на Ставропольской земле еще в эпоху ранней бронзы жили представители древней майкопской культуры - предки горских племен. Чуть позже, им на смену пришли другие народы: кобанцы, скифы, сарматы, хазары. Они строили здесь укрепления, и даже целые города. И все они, что удивительно, находились на территории современного Ставрополя. Ведущая RTG TV Ирина Пудова узнала, почему на протяжении многих тысяч лет люди выбирали именно эти места, как Ставрополь получил греческое имя и чем живет современный город.
качество: SATRip
формат: AVI
Видео: MPEG4, XviD, 720x560 (1.286), 25.000 fps, 1 398 Kbps (0.139 bit/pixel)
Аудио: MP3, 48.0 KHz, 2 ch, 128 Kbps, CBR
Код: Выделить всё
General
Complete name                            : C:\Users\User\Downloads\Прогулка по Ставрополю.avi
Format                                   : AVI
Format/Info                              : Audio Video Interleave
File size                                : 290 MiB
Duration                                 : 26mn 19s
Overall bit rate                         : 1 539 Kbps
Writing library                          : TMPGEnc 4.0 XPress Version. 4.7.7.307
Video
ID                                       : 0
Format                                   : MPEG-4 Visual
Format profile                           : Simple@L1
Format settings, BVOP                    : No
Format settings, QPel                    : No
Format settings, GMC                     : No warppoints
Format settings, Matrix                  : Default (H.263)
Codec ID                                 : XVID
Codec ID/Hint                            : XviD
Duration                                 : 26mn 19s
Bit rate                                 : 1 398 Kbps
Width                                    : 720 pixels
Height                                   : 560 pixels
Display aspect ratio                     : 1.286
Frame rate                               : 25.000 fps
Color space                              : YUV
Chroma subsampling                       : 4:2:0
Bit depth                                : 8 bits
Scan type                                : Progressive
Compression mode                         : Lossy
Bits/(Pixel*Frame)                       : 0.139
Stream size                              : 263 MiB (91%)
Writing library                          : Lavc52.92.0
Audio
ID                                       : 1
Format                                   : MPEG Audio
Format version                           : Version 1
Format profile                           : Layer 3
Mode                                     : Joint stereo
Codec ID                                 : 55
Codec ID/Hint                            : MP3
Duration                                 : 26mn 19s
Bit rate mode                            : Constant
Bit rate                                 : 128 Kbps
Channel(s)                               : 2 channels
Sampling rate                            : 48.0 KHz
Compression mode                         : Lossy
Stream size                              : 24.1 MiB (8%)
Alignment                                : Aligned on interleaves
Interleave, duration                     : 40 ms (1.01 video frame)
Interleave, preload duration             : 384 ms
 
Не забывайте говорить Спасибо. Не уходите с раздачи!   
Торрент: Зарегистрирован [30 апр 2018, 23:26] Скачать торрент
Скачать торрент
[ Размер 11.79 КБ / Просмотров 1 ]
Статус:
Проверен
 
.torrent скачан: 0 раз
Хэш: 4708fe41b74f0d19355f01153eb8f3724a1dfbc1
Размер: 289.83 МБ (303 912 654 байт)
Стать Автором раздачи
 
 
Раздал: 0 байт
Скачал: 0 байт
Ратио: Inf.
Сообщения: 487468
Зарегистрирован: 17 апр 2014, 13:57


  • Похожие торренты
    Ответы
    Просмотры
    Последнее сообщение

Вернуться в Документальные фильмы и телепередачи

Ресурс не предоставляет электронные версии произведений, а занимается лишь коллекционированием и каталогизацией ссылок, присылаемых и публикуемых на форуме нашими читателями. Если вы являетесь правообладателем какого-либо представленного материала и не желаете чтобы ссылка на него находилась в нашем каталоге, свяжитесь с нами и мы незамедлительно удалим её. Файлы для обмена на трекере предоставлены пользователями сайта, и администрация не несёт ответственности за их содержание. Просьба не заливать файлы, защищенные авторскими правами, а также файлы нелегального содержания!
cron