Следствие вели... с Леонидом Каневским 2018 (11 выпускoв из ?) (Александр Ярославцев) [2018, Документальный цикл, криминал, HDTV 1080i]

 
 Статистика раздачи 
Размер: 32.12 ГБ   |  Зарегистрирован: 30 апр 2018, 22:43   |   .torrent скачан: 0 раз
Сидеров: 1  [ 0 байт/сек ]     Личеров: 0  [ 0 байт/сек ]  
  

Следствие вели... с Леонидом Каневским 2018 (11 выпускoв из ?) (Александр Ярославцев) [2018, Документальный цикл, криминал, HDTV 1080i]

Сообщение Nakazhu » 30 апр 2018, 22:43

Следствие вели... с Леонидом Каневским 2018
Год выпуска: 2018
Страна: Россия
Студия: Версия
Жанр: Документальный цикл, криминал
Продолжительность: 11x ~00:43:00
Перевод: Не требуется
Русские субтитры: нет
Режиссер: Александр Ярославцев
Описание: Эти уголовные дела гремели на весь Советский Союз. По ним были написаны романы и сняты художественные фильмы. Их фигуранты — миллионеры эпохи социализма, хитроумные воры, профессиональные грабители и валютчики. Они бросили вызов советскому обществу. Вызов приняли лучшие сыщики страны. В их распоряжении не было компьютеров, сотовой связи и бойцов ОМОНа. Но это не мешало вершиться правосудию. Банда «Черная кошка», дело банды советских гангстеров конца 60-х годов, прозванных «Фантомасами», увлекательная история налетчика Леонида Пантелеева, «свободного художника-грабителя» — эти случаи вошли в историю отечественной криминалистики.
30.04.2018 _ добавил: Выпуск 405 Примета убийцы (29.04.2018)

Выпуск 405 Примета убийцы (29.04.2018)
Выпуск 404 Красная шапочка (22.04.2018)
Выпуск 403 По тонкому льду (15.04.2018)
Выпуск 402 Прирожнённый убийца (08.04.2018)
Выпуск 401 Убить за ребёнка! (18.03.2018)
Выпуск 400 Товарищ любовница (11.03.2018)
Выпуск 399 Отдайте ребёнка! (04.03.2018)
Выпуск 398 Смертельный вирус (25.02.2018)
Выпуск 397 Чужой ребёнок (18.02.2018)
Выпуск 396 Влюбленный ученик (11.02.2018)
Выпуск 395 Медвежий угол (04.02.2018)
Сэмпл: http://multi-up.com/1186010
Тип релиза: HDTV 1080i
Контейнер: TS
Видео: AVC, 1920x1080, (16:9), 25 fps, 9 905 kb/s
Аудио: MP2, 48 kHz; 2 ch; 192 kbps
Код: Выделить всё
General
ID                                       : 1 (0x1)
Complete name                       : C:\Выпуск 395 Медвежий угол (04.02.2018).ts
Format                                   : MPEG-TS
File size                                : 3.03 GiB
Duration                                 : 40 min 46 s
Overall bit rate mode                    : Variable
Overall bit rate                         : 10.6 Mb/s
Video
ID                                       : 69 (0x45)
Menu ID                                  : 1 (0x1)
Format                                   : AVC
Format/Info                              : Advanced Video Codec
Format profile                           : High@L4
Format settings                          : CABAC / 4 Ref Frames
Format settings, CABAC                   : Yes
Format settings, RefFrames               : 4 frames
Codec ID                                 : 27
Duration                                 : 40 min 48 s
Bit rate                                 : 9 905 kb/s
Width                                    : 1 920 pixels
Height                                   : 1 080 pixels
Display aspect ratio                     : 16:9
Frame rate                               : 25.000 FPS
Standard                                 : Component
Color space                              : YUV
Chroma subsampling                       : 4:2:0
Bit depth                                : 8 bits
Scan type                                : Interlaced
Scan type, store method                  : Separated fields
Scan order                               : Top Field First
Bits/(Pixel*Frame)                       : 0.191
Stream size                              : 2.82 GiB (93%)
Color range                              : Limited
Color primaries                          : BT.709
Transfer characteristics                 : BT.709
Matrix coefficients                      : BT.709
Audio
ID                                       : 68 (0x44)
Menu ID                                  : 1 (0x1)
Format                                   : MPEG Audio
Format version                           : Version 1
Format profile                           : Layer 2
Codec ID                                 : 3
Duration                                 : 40 min 48 s
Bit rate mode                            : Constant
Bit rate                                 : 192 kb/s
Channel(s)                               : 2 channels
Sampling rate                            : 48.0 kHz
Frame rate                               : 41.667 FPS (1152 SPF)
Compression mode                         : Lossy
Delay relative to video                  : -80 ms
Stream size                              : 56.0 MiB (2%)
Language                                 : Russian
 
Не забывайте говорить Спасибо. Не уходите с раздачи!   
Торрент: Зарегистрирован [30 апр 2018, 22:43] Скачать торрент
Скачать торрент
[ Размер 81.83 КБ / Просмотров 9 ]
Статус:
Проверен
 
.torrent скачан: 0 раз
Хэш: a5fd677cee9aedcf0c592dd62caa6ad3a2936df9
Размер: 32.12 ГБ (34 485 773 608 байт)
Стать Автором раздачи
 
 
Раздал: 0 байт
Скачал: 0 байт
Ратио: Inf.
Сообщения: 487468
Зарегистрирован: 17 апр 2014, 13:57


  • Похожие торренты
    Ответы
    Просмотры
    Последнее сообщение

Вернуться в Криминальная документалистика (HD Video)

Ресурс не предоставляет электронные версии произведений, а занимается лишь коллекционированием и каталогизацией ссылок, присылаемых и публикуемых на форуме нашими читателями. Если вы являетесь правообладателем какого-либо представленного материала и не желаете чтобы ссылка на него находилась в нашем каталоге, свяжитесь с нами и мы незамедлительно удалим её. Файлы для обмена на трекере предоставлены пользователями сайта, и администрация не несёт ответственности за их содержание. Просьба не заливать файлы, защищенные авторскими правами, а также файлы нелегального содержания!
cron