Серафим рожденный пламенным (Михаил Роговой) [2006, торжество Православия, DVDRip]

 
 Статистика раздачи 
Размер: 426.62 МБ   |  Зарегистрирован: 29 апр 2018, 22:00   |   .torrent скачан: 0 раз
Сидеров: 1  [ 0 байт/сек ]     Личеров: 0  [ 0 байт/сек ]  
  

Серафим рожденный пламенным (Михаил Роговой) [2006, торжество Православия, DVDRip]

Сообщение Nakazhu » 29 апр 2018, 22:00

Серафим рожденный пламенным
Дата/Год выпуска: 2006
Страна
: Росия
Жанр: торжество Православия
Продолжительность: 00:30:20
Перевод: Не требуется
Русские субтитры: нет
Оригинальная аудиодорожка: русский
Режиссер: Михаил Роговой
Описание: Четыре раза он мог умереть. Но смерть оказывалась бессильна. Пять лет никто не видел его лица. И еще пять лет никто не слышал его голоса. А , когда он заговорил, первый посетитель исцелился от неизлечимой болезни. Он мог стать богатым и знаменитым, но выбрал нищету. Он всю жизнь называл себя "убогим". Но к нему, как к последней надежде, стекались тысячи людей со все России. Он бегал от почестей и славы , но прославился на весь мир. Он жил во имя Господа. И Господь не предал Его забвению.
Преподобный Серафим, чудотворец Cаровский.
качество: DVDRip
формат: AVI
Видео: MPEG4, XviD, 720x544 (4:3), 25.000 fps, 1 792 Kbps (0.183 bit/pixel)
Аудио: MP3, 48.0 KHz, 2 ch, 160 Kbps, CBR
Код: Выделить всё
General
Complete name                            : C:\Users\User\Downloads\Серафим рожденный пламенным.avi
Format                                   : AVI
Format/Info                              : Audio Video Interleave
File size                                : 427 MiB
Duration                                 : 30mn 20s
Overall bit rate                         : 1 965 Kbps
Video
ID                                       : 0
Format                                   : MPEG-4 Visual
Format profile                           : Advanced Simple@L5
Format settings, BVOP                    : 1
Format settings, QPel                    : No
Format settings, GMC                     : No warppoints
Format settings, Matrix                  : Default (H.263)
Codec ID                                 : XVID
Codec ID/Hint                            : XviD
Duration                                 : 30mn 20s
Bit rate                                 : 1 792 Kbps
Width                                    : 720 pixels
Height                                   : 544 pixels
Display aspect ratio                     : 4:3
Frame rate                               : 25.000 fps
Color space                              : YUV
Chroma subsampling                       : 4:2:0
Bit depth                                : 8 bits
Scan type                                : Progressive
Compression mode                         : Lossy
Bits/(Pixel*Frame)                       : 0.183
Stream size                              : 389 MiB (91%)
Writing library                          : XviD 1.2.1 (UTC 2008-12-04)
Audio
ID                                       : 1
Format                                   : MPEG Audio
Format version                           : Version 1
Format profile                           : Layer 3
Mode                                     : Joint stereo
Mode extension                           : MS Stereo
Codec ID                                 : 55
Codec ID/Hint                            : MP3
Duration                                 : 30mn 20s
Bit rate mode                            : Constant
Bit rate                                 : 160 Kbps
Channel(s)                               : 2 channels
Sampling rate                            : 48.0 KHz
Compression mode                         : Lossy
Delay relative to video                  : 40ms
Stream size                              : 34.7 MiB (8%)
Alignment                                : Aligned on interleaves
Interleave, duration                     : 24 ms (0.60 video frame)
Interleave, preload duration             : 504 ms
 
Не забывайте говорить Спасибо. Не уходите с раздачи!   
Торрент: Зарегистрирован [29 апр 2018, 22:00] Скачать торрент
Скачать торрент
[ Размер 17.15 КБ / Просмотров 3 ]
Статус:
Проверен
 
.torrent скачан: 0 раз
Хэш: e98305c0997d5f830288130fd01f689737775065
Размер: 426.62 МБ (447 341 702 байт)
Стать Автором раздачи
 
 
Раздал: 0 байт
Скачал: 0 байт
Ратио: Inf.
Сообщения: 487468
Зарегистрирован: 17 апр 2014, 13:57


  • Похожие торренты
    Ответы
    Просмотры
    Последнее сообщение

Вернуться в Вера и религия (видео)

Ресурс не предоставляет электронные версии произведений, а занимается лишь коллекционированием и каталогизацией ссылок, присылаемых и публикуемых на форуме нашими читателями. Если вы являетесь правообладателем какого-либо представленного материала и не желаете чтобы ссылка на него находилась в нашем каталоге, свяжитесь с нами и мы незамедлительно удалим её. Файлы для обмена на трекере предоставлены пользователями сайта, и администрация не несёт ответственности за их содержание. Просьба не заливать файлы, защищенные авторскими правами, а также файлы нелегального содержания!
cron