Пути Господни. Иоанн Кронштадтский (Нелли Шевченко) [2001, торжество Православия, DVDRip]

 
 Статистика раздачи 
Размер: 297.08 МБ   |  Зарегистрирован: 29 апр 2018, 21:43   |   .torrent скачан: 0 раз
Сидеров: 1  [ 0 байт/сек ]     Личеров: 0  [ 0 байт/сек ]  
  

Пути Господни. Иоанн Кронштадтский (Нелли Шевченко) [2001, торжество Православия, DVDRip]

Сообщение Nakazhu » 29 апр 2018, 21:43

Пути Господни. Иоанн Кронштадтский
Дата/Год выпуска: 2001
Страна
: Россия
Жанр: торжество Православия
Продолжительность: 00:24:13
Перевод: Не требуется
Русские субтитры: нет
Оригинальная аудиодорожка: русский
Режиссер: Нелли Шевченко
Описание: Цикл документальных фильмов Пути Господни, рассказывающих о жизни известных и чтимых РПЦ людей, об их подвигах и тяжёлых испытаниях. Данный фильм о святом праведном Иоанне Кронштадтском.
качество: DVDRip
формат: AVI
Видео: MPEG4, XviD, 720x544 (4:3), 25.000 fps, 1 542 Kbps (0.157 bit/pixel)
Аудио: MP3, 48.0 KHz, 2 ch, 160 Kbps, CBR
Код: Выделить всё
General
Complete name                            : C:\Users\User\Downloads\Пути Господни. Иоанн Кронштадтский.avi
Format                                   : AVI
Format/Info                              : Audio Video Interleave
File size                                : 297 MiB
Duration                                 : 24mn 13s
Overall bit rate                         : 1 715 Kbps
Video
ID                                       : 0
Format                                   : MPEG-4 Visual
Format profile                           : Advanced Simple@L5
Format settings, BVOP                    : 1
Format settings, QPel                    : No
Format settings, GMC                     : No warppoints
Format settings, Matrix                  : Default (H.263)
Codec ID                                 : XVID
Codec ID/Hint                            : XviD
Duration                                 : 24mn 13s
Bit rate                                 : 1 542 Kbps
Width                                    : 720 pixels
Height                                   : 544 pixels
Display aspect ratio                     : 4:3
Frame rate                               : 25.000 fps
Color space                              : YUV
Chroma subsampling                       : 4:2:0
Bit depth                                : 8 bits
Scan type                                : Progressive
Compression mode                         : Lossy
Bits/(Pixel*Frame)                       : 0.157
Stream size                              : 267 MiB (90%)
Writing library                          : XviD 63
Audio
ID                                       : 1
Format                                   : MPEG Audio
Format version                           : Version 1
Format profile                           : Layer 3
Mode                                     : Joint stereo
Codec ID                                 : 55
Codec ID/Hint                            : MP3
Duration                                 : 24mn 12s
Bit rate mode                            : Constant
Bit rate                                 : 160 Kbps
Channel(s)                               : 2 channels
Sampling rate                            : 48.0 KHz
Compression mode                         : Lossy
Delay relative to video                  : 40ms
Stream size                              : 27.7 MiB (9%)
Alignment                                : Aligned on interleaves
Interleave, duration                     : 24 ms (0.60 video frame)
Interleave, preload duration             : 504 ms
Writing library                          : LAME3.98.4
 
Не забывайте говорить Спасибо. Не уходите с раздачи!   
Торрент: Зарегистрирован [29 апр 2018, 21:43] Для скачивания .torrent
необходима регистрация
Или скачать с помощью
MediaGet
Статус:
Проверен
 
.torrent скачан: 0 раз
Хэш: e6688d49db64e2c2e9724a89876d39ca87ff3134
Размер: 297.08 МБ (311 506 386 байт)
Стать Автором раздачи
 
 
Раздал: 0 байт
Скачал: 0 байт
Ратио: Inf.
Сообщения: 487468
Зарегистрирован: 17 апр 2014, 13:57


  • Похожие торренты
    Ответы
    Просмотры
    Последнее сообщение

Вернуться в Вера и религия (видео)

Ресурс не предоставляет электронные версии произведений, а занимается лишь коллекционированием и каталогизацией ссылок, присылаемых и публикуемых на форуме нашими читателями. Если вы являетесь правообладателем какого-либо представленного материала и не желаете чтобы ссылка на него находилась в нашем каталоге, свяжитесь с нами и мы незамедлительно удалим её. Файлы для обмена на трекере предоставлены пользователями сайта, и администрация не несёт ответственности за их содержание. Просьба не заливать файлы, защищенные авторскими правами, а также файлы нелегального содержания!
cron