Чудотворец (Аркадий Мамонтов) [2007, торжество Православия, DVDRip]

 
 Статистика раздачи 
Размер: 339.89 МБ   |  Зарегистрирован: 29 апр 2018, 21:13   |   .torrent скачан: 0 раз
Сидеров: 1  [ 0 байт/сек ]     Личеров: 0  [ 0 байт/сек ]  
  

Чудотворец (Аркадий Мамонтов) [2007, торжество Православия, DVDRip]

Сообщение Nakazhu » 29 апр 2018, 21:13

Чудотворец
Дата/Год выпуска: 2007
Страна
: Россия
Жанр: торжество Православия
Продолжительность: 00:27:43
Перевод: Не требуется
Русские субтитры: нет
Оригинальная аудиодорожка: русский
Режиссер: Аркадий Мамонтов
Описание: Документальный фильм «Чудотворец» рассказывает о великом христианском святом - Архиепископе Мир Ликийских, святителе Николае-чудотворце. Покровитель всех путешествующих особенно любим и почитаем в России. Его имя окружено множеством легенд и сказаний. Между тем мало кто знает о настоящей истории его жизни...
Смотрите:
• Жизнь и духовный подвиг святителя Николая.
• Почему православные называют его - «правило веры и образ кротости».
• Почему святой Николай, родившийся в Византийской империи в 3-ем веке, так почитаем в России в веке 21-ом.
• Каким образом мощи святого попали в Италию.
• Русские паломники в городе Бари.
• Чудо истечение мира (благоуханного масла) от мощей святого.
• Случаи исцелений и чудесной помощи по молитвам к святому.
• Современные исследователи - о святителе Николае.
• Эксклюзивные съемки в Италии, Турции, России.
качество: DVDRip
формат: AVI
Видео: MPEG4, XviD, 720x560 (1.286), 25.000 fps, 1 541 Kbps (0.153 bit/pixel)
Аудио: MP3, 48.0 KHz, 2 ch, 160 Kbps, CBR
Код: Выделить всё
General
Complete name                            : C:\Users\User\Downloads\Чудотворец.avi
Format                                   : AVI
Format/Info                              : Audio Video Interleave
File size                                : 340 MiB
Duration                                 : 27mn 43s
Overall bit rate                         : 1 714 Kbps
Video
ID                                       : 0
Format                                   : MPEG-4 Visual
Format profile                           : Advanced Simple@L5
Format settings, BVOP                    : 1
Format settings, QPel                    : No
Format settings, GMC                     : No warppoints
Format settings, Matrix                  : Default (H.263)
Codec ID                                 : XVID
Codec ID/Hint                            : XviD
Duration                                 : 27mn 43s
Bit rate                                 : 1 541 Kbps
Width                                    : 720 pixels
Height                                   : 560 pixels
Display aspect ratio                     : 1.286
Frame rate                               : 25.000 fps
Color space                              : YUV
Chroma subsampling                       : 4:2:0
Bit depth                                : 8 bits
Scan type                                : Progressive
Compression mode                         : Lossy
Bits/(Pixel*Frame)                       : 0.153
Stream size                              : 306 MiB (90%)
Writing library                          : XviD 1.2.1 (UTC 2008-12-04)
Audio
ID                                       : 1
Format                                   : MPEG Audio
Format version                           : Version 1
Format profile                           : Layer 3
Mode                                     : Joint stereo
Mode extension                           : MS Stereo
Codec ID                                 : 55
Codec ID/Hint                            : MP3
Duration                                 : 27mn 43s
Bit rate mode                            : Constant
Bit rate                                 : 160 Kbps
Channel(s)                               : 2 channels
Sampling rate                            : 48.0 KHz
Compression mode                         : Lossy
Delay relative to video                  : 40ms
Stream size                              : 31.7 MiB (9%)
Alignment                                : Aligned on interleaves
Interleave, duration                     : 24 ms (0.60 video frame)
Interleave, preload duration             : 504 ms
Writing library                          : LAME3.98.4
 
Не забывайте говорить Спасибо. Не уходите с раздачи!   
Торрент: Зарегистрирован [29 апр 2018, 21:13] Для скачивания .torrent
необходима регистрация
Или скачать с помощью
MediaGet
Статус:
Проверен
 
.torrent скачан: 0 раз
Хэш: 5279c4d3682020122c1959057f1ead51db140853
Размер: 339.89 МБ (356 404 146 байт)
Стать Автором раздачи
 
 
Раздал: 0 байт
Скачал: 0 байт
Ратио: Inf.
Сообщения: 487468
Зарегистрирован: 17 апр 2014, 13:57


  • Похожие торренты
    Ответы
    Просмотры
    Последнее сообщение

Вернуться в Вера и религия (видео)

Ресурс не предоставляет электронные версии произведений, а занимается лишь коллекционированием и каталогизацией ссылок, присылаемых и публикуемых на форуме нашими читателями. Если вы являетесь правообладателем какого-либо представленного материала и не желаете чтобы ссылка на него находилась в нашем каталоге, свяжитесь с нами и мы незамедлительно удалим её. Файлы для обмена на трекере предоставлены пользователями сайта, и администрация не несёт ответственности за их содержание. Просьба не заливать файлы, защищенные авторскими правами, а также файлы нелегального содержания!
cron