Осень митрополита (Г. Уваров) [2004, торжество Православия, DVDRip]

 
 Статистика раздачи 
Размер: 232.84 МБ   |  Зарегистрирован: 29 апр 2018, 21:12   |   .torrent скачан: 0 раз
Сидеров: 1  [ 0 байт/сек ]     Личеров: 0  [ 0 байт/сек ]  
  

Осень митрополита (Г. Уваров) [2004, торжество Православия, DVDRip]

Сообщение Nakazhu » 29 апр 2018, 21:12

Осень митрополита
Дата/Год выпуска: 2004
Страна
: Россия
Жанр: торжество Православия
Продолжительность: 00:25:35
Перевод: Не требуется
Русские субтитры: нет
Оригинальная аудиодорожка: русский
Режиссер: Г. Уваров
Описание: Жизнеописание митрополита Волоколамского и Юрьевского Питирима (Нечаева), видного иерарха Русской Православной Церкви. Уникальность фильма не только в эксклюзивно отснятом материале с участием митрополита Питирима, но и в дикторском тексте картины, которым стали рассуждения самого митрополита, записанные на магнитофон за несколько дней до его кончины...
качество: DVDRip
формат: AVI
Видео: MPEG4, DivX 5, 640x480 (4:3), 25.000 fps, 1 198 Kbps (0.156 bit/pixel)
Аудио: MP3, 48.0 KHz, 1 ch, 64.0 Kbps, CBR
Код: Выделить всё
General
Complete name                            : C:\Users\User\Downloads\Осень митрополита.avi
Format                                   : AVI
Format/Info                              : Audio Video Interleave
File size                                : 233 MiB
Duration                                 : 25mn 35s
Overall bit rate                         : 1 272 Kbps
Video
ID                                       : 0
Format                                   : MPEG-4 Visual
Format settings, BVOP                    : 1
Format settings, QPel                    : No
Format settings, GMC                     : No warppoints
Format settings, Matrix                  : Default (H.263)
Codec ID                                 : DX50
Codec ID/Hint                            : DivX 5
Duration                                 : 25mn 35s
Bit rate                                 : 1 198 Kbps
Width                                    : 640 pixels
Height                                   : 480 pixels
Display aspect ratio                     : 4:3
Frame rate                               : 25.000 fps
Color space                              : YUV
Chroma subsampling                       : 4:2:0
Bit depth                                : 8 bits
Scan type                                : Progressive
Compression mode                         : Lossy
Bits/(Pixel*Frame)                       : 0.156
Stream size                              : 219 MiB (94%)
Writing library                          : DivX 6.1.0 (UTC 2005-12-12)
Audio
ID                                       : 1
Format                                   : MPEG Audio
Format version                           : Version 1
Format profile                           : Layer 3
Codec ID                                 : 55
Codec ID/Hint                            : MP3
Duration                                 : 25mn 35s
Bit rate mode                            : Constant
Bit rate                                 : 64.0 Kbps
Channel(s)                               : 1 channel
Sampling rate                            : 48.0 KHz
Compression mode                         : Lossy
Stream size                              : 11.7 MiB (5%)
Alignment                                : Split accross interleaves
Interleave, duration                     : 40 ms (1.00 video frame)
Interleave, preload duration             : 500 ms
 
Не забывайте говорить Спасибо. Не уходите с раздачи!   
Торрент: Зарегистрирован [29 апр 2018, 21:12] Для скачивания .torrent
необходима регистрация
Или скачать с помощью
MediaGet
Статус:
Проверен
 
.torrent скачан: 0 раз
Хэш: 47aefb1e63430333886ac34c671fd5c9e53a0376
Размер: 232.84 МБ (244 152 670 байт)
Стать Автором раздачи
 
 
Раздал: 0 байт
Скачал: 0 байт
Ратио: Inf.
Сообщения: 487468
Зарегистрирован: 17 апр 2014, 13:57


  • Похожие торренты
    Ответы
    Просмотры
    Последнее сообщение

Вернуться в Вера и религия (видео)

Ресурс не предоставляет электронные версии произведений, а занимается лишь коллекционированием и каталогизацией ссылок, присылаемых и публикуемых на форуме нашими читателями. Если вы являетесь правообладателем какого-либо представленного материала и не желаете чтобы ссылка на него находилась в нашем каталоге, свяжитесь с нами и мы незамедлительно удалим её. Файлы для обмена на трекере предоставлены пользователями сайта, и администрация не несёт ответственности за их содержание. Просьба не заливать файлы, защищенные авторскими правами, а также файлы нелегального содержания!
cron