Александр Невский. Между Востоком и Западом (Алексей Денисов) [2016, Православно-исторический, HDTVRip 720p]

 
 Статистика раздачи 
Размер: 715.7 МБ   |  Зарегистрирован: 29 апр 2018, 15:15   |   .torrent скачан: 0 раз
Сидеров: 1  [ 0 байт/сек ]     Личеров: 0  [ 0 байт/сек ]  
  

Александр Невский. Между Востоком и Западом (Алексей Денисов) [2016, Православно-исторический, HDTVRip 720p]

Сообщение Nakazhu » 29 апр 2018, 15:15

Александр Невский. Между Востоком и Западом
Дата/Год выпуска: 2016
Страна: Россия
Жанр: Православно-исторический
Продолжительность: 00:52:02
Перевод: Не требуется
Русские субтитры: нет
Оригинальная аудиодорожка: русский
Режиссер: А. Денисов
Телеканал: Россия 1 HD
Описание: При рождении его назвали Александром; после смерти - "Солнцем земли Суздальской". В 20 лет он одержал победы, которые принесли ему славу великого полководца. Русская Церковь причислила его к лику святых. Народ назовет его "Невским". История - "Заступником земли Русской".
Он умер при загадочных обстоятельствах, возвращаясь из последней поездки в Орду.
Какие еще тайны навсегда унес с собой в могилу великий воин, дипломат и правитель?
Доп. информация: Рип скачан с другого трекера.
Сэмпл: https://cloud.mail.ru/public/2WU7/pUBvMgFph
Качество: HDTVRip 720p
Формат: MKV
Видео: 1795 Кбит/сек, AVC 1280*720 (16:9), 25,000 кадров/сек, CABAC
Аудио: Русский, 125 Кбит/сек, 48,0 КГц, 2 канала, AAC (LC)
Код: Выделить всё
Общее
Уникальный идентификатор                 : 309779559316619829645049230158056749086 (0xE90D5F794DB88FD6A05548FA7949781E)
Полное имя                               : I:\MONAR\Документальные фильмы\История России и мира\Александр Невский. Между Востоком и Западом.mkv
Формат                                   : Matroska
Версия формата                           : Version 4 / Version 2
Размер файла                             : 716 Мбайт
Продолжительность                        : 52 м. 2 с.
Режим общего битрейта                    : Переменный
Общий поток                              : 1923 Кбит/сек
Дата кодирования                         : UTC 2018-04-29 11:29:52
Программа кодирования                    : mkvmerge v19.0.0 ('Brave Captain') 64-bit
Библиотека кодирования                   : libebml v1.3.5 + libmatroska v1.4.8
Видео
Идентификатор                            : 1
Формат                                   : AVC
Формат/Информация                        : Advanced Video Codec
Профиль формата                          : High@L3.1
Настройки формата                        : CABAC / 2 Ref Frames
Параметр CABAC формата                   : Да
Параметр RefFrames формата               : 2 кадра
Параметр GOP формата                     : M=3, N=60
Идентификатор кодека                     : V_MPEG4/ISO/AVC
Продолжительность                        : 52 м. 2 с.
Вид битрейта                             : Переменный
Битрейт                                  : 1795 Кбит/сек
Максимальный битрейт                     : 2400 Кбит/сек
Ширина                                   : 1280 пикселей
Высота                                   : 720 пикселей
Соотношение сторон                       : 16:9
Режим частоты кадров                     : Постоянный
Частота кадров                           : 25,000 кадров/сек
Цветовое пространство                    : YUV
Субдискретизация насыщенности            : 4:2:0
Битовая глубина                          : 8 бит
Тип развёртки                            : Прогрессивная
Бит/(Пиксели*Кадры)                      : 0.078
Размер потока                            : 668 Мбайт (93%)
Язык                                     : Russian
Default                                  : Да
Forced                                   : Нет
Аудио
Идентификатор                            : 2
Формат                                   : AAC
Формат/Информация                        : Advanced Audio Codec
Профиль формата                          : LC
Идентификатор кодека                     : A_AAC-2
Продолжительность                        : 52 м. 2 с.
Битрейт                                  : 125 Кбит/сек
Каналы                                   : 2 канала
Расположение каналов                     : Front: L R
Частота                                  : 48,0 КГц
Частота кадров                           : 46,875 кадров/сек (1024 SPF)
Метод сжатия                             : С потерями
Размер потока                            : 46,7 Мбайт (7%)
Язык                                     : Russian
Default                                  : Да
Forced                                   : Нет
 
Не забывайте говорить Спасибо. Не уходите с раздачи!   
Торрент: Зарегистрирован [29 апр 2018, 15:15] Для скачивания .torrent
необходима регистрация
Или скачать с помощью
MediaGet
Статус:
Проверен
 
.torrent скачан: 0 раз
Хэш: 1cba88521e577384ef9def4a8525d99affce5258
Размер: 715.7 МБ (750 470 733 байт)
Стать Автором раздачи
 
 
Раздал: 0 байт
Скачал: 0 байт
Ратио: Inf.
Сообщения: 456015
Зарегистрирован: 17 апр 2014, 13:57


  • Похожие торренты
    Ответы
    Просмотры
    Последнее сообщение

Вернуться в Вера и религия (видео)

Ресурс не предоставляет электронные версии произведений, а занимается лишь коллекционированием и каталогизацией ссылок, присылаемых и публикуемых на форуме нашими читателями. Если вы являетесь правообладателем какого-либо представленного материала и не желаете чтобы ссылка на него находилась в нашем каталоге, свяжитесь с нами и мы незамедлительно удалим её. Файлы для обмена на трекере предоставлены пользователями сайта, и администрация не несёт ответственности за их содержание. Просьба не заливать файлы, защищенные авторскими правами, а также файлы нелегального содержания!
cron