Подойди ближе / Come, Closer (Ким Чжон Кван / Kim Jung Kwan) [2010, Южная Корея, драма, романтика, DVDRip] VO (Олег Воротилин)

 
 Статистика раздачи 
Размер: 1.46 ГБ   |  Зарегистрирован: 26 апр 2018, 08:49   |   .torrent скачан: 0 раз
Сидеров: 1  [ 0 байт/сек ]     Личеров: 0  [ 0 байт/сек ]  
  

Подойди ближе / Come, Closer (Ким Чжон Кван / Kim Jung Kwan) [2010, Южная Корея, драма, романтика, DVDRip] VO (Олег Воротилин)

Сообщение Nakazhu » 26 апр 2018, 08:49

Подойди ближе / Come, Closer / Jogeumman Deo Gaggayir
Страна: Южная Корея
Жанр: драма, романтика
Год выпуска: 2010
Продолжительность: 01:47:46
Перевод: Одноголосый закадровый Олег Воротилин по субтитрам Stellmaria23
Субтитры: нет
Оригинальная аудиодорожка: нет
Режиссер: Ким Чжон Кван / Kim Jung Kwan
В ролях: Юн Ке Сан, Чон Ю Ми, Юн Хи Сок, Чан Со Вон и др.
Описание: "Подойди ближе" - это история о пяти разных парах.
Хё Со работает в кафе. В один самый обычный вечер раздаётся телефонный звонок от парня, ищущего свою бывшую девушку. У него есть что рассказать, у неё есть время, чтобы слушать...
Ён Су оказывается наедине с девушкой. Ходят слухи, что он гей. Но правда ли это?..
Дождливый осенний вечер... Парень отъезжает со стоянки... Неожиданно появляется его бывшая девушка...
Ён Су запутался... Его друг приходит после ночи веселья и узнаёт, что Ён Су расстаётся с ним ради девушки...
Вокалистка и гитарист инди-группы... Люди часто ошибочно принимают их за парочку...
Доп. информация: Премьера фильма состоялась на Пусанском международном кинофестивале в октябре 2010 года.
Перевод фансаб-группы IRISubs pic
Переводчик: Stellmaria23
Редактор: Marissa
Сэмпл: https://yadi.sk/i/5baLjibY3UnRm2
Качество видео: DVDRip
Формат видео: AVI
Видео: XVID 720x400 (16:9) 23.98fps 1482Kbps
Аудио: Dolby AC3 48000Hz 6ch (Front: L C R, Side: L R, LFE) 448Kbps
Код: Выделить всё
Общее
Полное имя                               : E:\Видео\Релизы\Подойди поближе\Come Closer.2010.DVDRip.avi
Формат                                   : AVI
Формат/Информация                        : Audio Video Interleave
Размер файла                             : 1,46 Гбайт
Продолжительность                        : 1 ч. 47 м.
Общий поток                              : 1940 Кбит/сек
Видео
Идентификатор                            : 0
Формат                                   : MPEG-4 Visual
Профиль формата                          : Advanced Simple@L5
Параметр BVOP формата                    : 1
Параметр QPel формата                    : Нет
Параметр GMC формата                     : Без точки перехода
Параметр матрицы формата                 : Default (H.263)
Идентификатор кодека                     : XVID
Идентификатор кодека/Подсказка           : XviD
Продолжительность                        : 1 ч. 47 м.
Битрейт                                  : 1482 Кбит/сек
Ширина                                   : 720 пикселей
Высота                                   : 400 пикселей
Соотношение сторон                       : 16:9
Частота кадров                           : 23,976 (24000/1001) кадра/сек
Цветовое пространство                    : YUV
Субдискретизация насыщенности            : 4:2:0
Битовая глубина                          : 8 бит
Тип развёртки                            : Прогрессивная
Метод сжатия                             : С потерями
Бит/(Пиксели*Кадры)                      : 0.215
Размер потока                            : 1,12 Гбайт (76%)
Библиотека кодирования                   : XviD 1.2.1 (UTC 2008-12-04)
Аудио
Идентификатор                            : 1
Формат                                   : AC-3
Формат/Информация                        : Audio Coding 3
Расширение режима                        : CM (complete main)
Параметр Endianness формата              : Big
Идентификатор кодека                     : 2000
Продолжительность                        : 1 ч. 47 м.
Вид битрейта                             : Постоянный
Битрейт                                  : 448 Кбит/сек
Каналы                                   : 6 каналов
Расположение каналов                     : Front: L C R, Side: L R, LFE
Частота                                  : 48,0 КГц
Частота кадров                           : 31,250 кадров/сек (1536 spf)
Битовая глубина                          : 16 бит
Метод сжатия                             : С потерями
Размер потока                            : 345 Мбайт (23%)
Выравнивание                             : Соединение по промежуткам
Продолжительность промежутка             : 42  мс. (1,00 видеокадр)
Время предзагрузки промежутка            : 512  мс.



Видеоряд и перевод взяты отсюда:
 
Не забывайте говорить Спасибо. Не уходите с раздачи!   
Торрент: Зарегистрирован [26 апр 2018, 08:49] Для скачивания .torrent
необходима регистрация
Или скачать с помощью
MediaGet
Статус:
Проверен
 
.torrent скачан: 0 раз
Хэш: c1cf897a847734786f9e27d69dd2b8580f676332
Размер: 1.46 ГБ (1 567 816 538 байт)
Стать Автором раздачи
 
 
Раздал: 0 байт
Скачал: 0 байт
Ратио: Inf.
Сообщения: 487468
Зарегистрирован: 17 апр 2014, 13:57


  • Похожие торренты
    Ответы
    Просмотры
    Последнее сообщение

Вернуться в Зарубежные фильмы 2006-2010 года

Ресурс не предоставляет электронные версии произведений, а занимается лишь коллекционированием и каталогизацией ссылок, присылаемых и публикуемых на форуме нашими читателями. Если вы являетесь правообладателем какого-либо представленного материала и не желаете чтобы ссылка на него находилась в нашем каталоге, свяжитесь с нами и мы незамедлительно удалим её. Файлы для обмена на трекере предоставлены пользователями сайта, и администрация не несёт ответственности за их содержание. Просьба не заливать файлы, защищенные авторскими правами, а также файлы нелегального содержания!
cron