Земля вампиров / Stake Land (Джим Микл / Jim Mickle) [2010, США, триллер, ужасы, BDRip] AVO (Вартан Дохалов)

 
 Статистика раздачи 
Размер: 1.46 ГБ   |  Зарегистрирован: 25 апр 2018, 10:37   |   .torrent скачан: 0 раз
Сидеров: 1  [ 0 байт/сек ]     Личеров: 0  [ 0 байт/сек ]  
  

Земля вампиров / Stake Land (Джим Микл / Jim Mickle) [2010, США, триллер, ужасы, BDRip] AVO (Вартан Дохалов)

Сообщение Nakazhu » 25 апр 2018, 10:37

Земля вампиров / Stake Land
Страна: США
Жанр: триллер, ужасы
Год выпуска: 2010
Продолжительность: 01:38:29
Перевод: Авторский (одноголосый закадровый) Вартан Дохалов
Субтитры: нет
Режиссер: Джим Микл / Jim Mickle
В ролях: Коннор Паоло, Грегори Джонс, Трэйси Ховел, Даниэль Харрис, Ник Дамичи, Джеймс Годвин, Тим Хаус, Марианн Хэйгэн, Стюарт Рудин
Описание: В Америке наступил кризис. Города и села потихоньку разрушаются, но это далеко не самая страшная беда. Куда страшнее то, что страну захлестнула эпидемия вампиризма. Люди боятся выходить на улицу, ведь там их может поджидать кровосос. Но есть и те, кто не боятся вступать в поединки с ночными монстрами. Их называют «охотники на вампиров». Один из самых успешных и популярных охотников носит прозвище Мистер. Молодой человек просит его помочь добраться до Нового Эдема, который находится где-то на Севере. Дорога туда трудна и опасно, но для Мистера нет непреодолимых препятствий...
Сэмпл: https://yadi.sk/i/h0wxG4wJ3UkQzp
Качество видео: BDRip (Исходник Stake.Land.2010.BDRemux.mkv)
Формат видео: AVI
Видео: XviD 73, 720x304, (2,35:1), 23,976 fps, 1670 Кбит/с, 8 бит
Аудио: Русский (АС3, 6 ch (Front: L C R, Side: L R, LFE), 48,0 KHz, 448 Kbps)
Код: Выделить всё
Общее
Полное имя                               : H:\Фильмы на трекер\Земля вампиров  (триллер, ужасы 2010 год).avi
Формат                                   : AVI
Формат/Информация                        : Audio Video Interleave
Размер файла                             : 1,46 Гбайт
Продолжительность                        : 1 ч. 38 м.
Общий поток                              : 2127 Кбит/сек
Программа кодирования                    : VirtualDubMod 1.5.10.3 | www.virtualdub-fr.org || (build 2550/release)
Библиотека кодирования                   : VirtualDubMod build 2550/release
Видео
Идентификатор                            : 0
Формат                                   : MPEG-4 Visual
Профиль формата                          : Advanced Simple@L5
Параметр BVOP формата                    : 2
Параметр QPel формата                    : Нет
Параметр GMC формата                     : Без точки перехода
Параметр матрицы формата                 : Выборочная
Идентификатор кодека                     : XVID
Идентификатор кодека/Подсказка           : XviD
Продолжительность                        : 1 ч. 38 м.
Битрейт                                  : 1670 Кбит/сек
Ширина                                   : 720 пикселей
Высота                                   : 304 пикселя
Соотношение сторон                       : 2,35:1
Частота кадров                           : 23,976 (23976/1000) кадра/сек
Цветовое пространство                    : YUV
Субдискретизация насыщенности            : 4:2:0
Битовая глубина                          : 8 бит
Тип развёртки                            : Прогрессивная
Метод сжатия                             : С потерями
Бит/(Пиксели*Кадры)                      : 0.318
Размер потока                            : 1,15 Гбайт (78%)
Библиотека кодирования                   : XviD 73
Аудио
Идентификатор                            : 1
Формат                                   : AC-3
Формат/Информация                        : Audio Coding 3
Расширение режима                        : CM (complete main)
Параметр Endianness формата              : Big
Идентификатор кодека                     : 2000
Продолжительность                        : 1 ч. 38 м.
Вид битрейта                             : Постоянный
Битрейт                                  : 448 Кбит/сек
Каналы                                   : 6 каналов
Расположение каналов                     : Front: L C R, Side: L R, LFE
Частота                                  : 48,0 КГц
Частота кадров                           : 31,250 кадров/сек (1536 spf)
Метод сжатия                             : С потерями
Размер потока                            : 316 Мбайт (21%)
Выравнивание                             : Разделение по промежуткам
Продолжительность промежутка             : 42  мс. (1,00 видеокадр)
Время предзагрузки промежутка            : 500  мс.
 
Не забывайте говорить Спасибо. Не уходите с раздачи!   
Торрент: Зарегистрирован [25 апр 2018, 10:37] Для скачивания .torrent
необходима регистрация
Или скачать с помощью
MediaGet
Статус:
Проверен
 
.torrent скачан: 0 раз
Хэш: 582c16acd6a4cdef94fbb1f25a09c03fa0612f68
Размер: 1.46 ГБ (1 571 160 064 байт)
Стать Автором раздачи
 
 
Раздал: 0 байт
Скачал: 0 байт
Ратио: Inf.
Сообщения: 487468
Зарегистрирован: 17 апр 2014, 13:57


  • Похожие торренты
    Ответы
    Просмотры
    Последнее сообщение

Вернуться в Зарубежные фильмы 2006-2010 года

Ресурс не предоставляет электронные версии произведений, а занимается лишь коллекционированием и каталогизацией ссылок, присылаемых и публикуемых на форуме нашими читателями. Если вы являетесь правообладателем какого-либо представленного материала и не желаете чтобы ссылка на него находилась в нашем каталоге, свяжитесь с нами и мы незамедлительно удалим её. Файлы для обмена на трекере предоставлены пользователями сайта, и администрация не несёт ответственности за их содержание. Просьба не заливать файлы, защищенные авторскими правами, а также файлы нелегального содержания!
cron