IndyLights 2018. Этап 2. Grand Prix Of Alabama. 2-ая гонка. Viasat Sport HD [15.04.2018, Автоспорт, DVB-S2 Remux 1080i, Рус/Анг]

 
 Статистика раздачи 
Размер: 2.81 ГБ   |  Зарегистрирован: 25 апр 2018, 02:30   |   .torrent скачан: 0 раз
Сидеров: 1  [ 0 байт/сек ]     Личеров: 0  [ 0 байт/сек ]  
  

IndyLights 2018. Этап 2. Grand Prix Of Alabama. 2-ая гонка. Viasat Sport HD [15.04.2018, Автоспорт, DVB-S2 Remux 1080i, Рус/Анг]

Сообщение Nakazhu » 25 апр 2018, 02:31

IndyLights 2018. Этап 2. Grand Prix Of Alabama. 2-ая гонка. Viasat Sport HD
Вид спорта: Автоспорт
О трассе: Постояный автодром дорожного типа протяжённостью в 3,8 км, который включает в себя 17 плавных поворотов. Перепад высоты в 24 метра усложняет жизнь как пилотом, так и гоночным инженерам. Полотно шириной в 13,7 м требует продуманный действий для успешного завершения обгона.
Язык комментариев:Русский (Сергей Беднарук)
[*]Английский (NBCSN)Автор рипа/записи: Ales
Качество: DVB-S2 Remux
Формат видео: MKV
Видео: H264, 1920x1080Ι, 25 кадр/c, 8 600 kb/s
Аудио: MP2 2.0, 48.0 KHz, 192 kb/s
0:44:28
Код: Выделить всё
General
Unique ID                                : 299001147537790078446598117699476325383 (0xE0F186BE8A5F664DBD005576A6210407)
Complete name                            : E:\IndyLights2018\IndyLights.2018.R02.Grand.Prix.Of.Alabama.Race.Two.Viasat.Sport.HD.1080I.Rus.Eng.mkv
Format                                   : Matroska
Format version                           : Version 4 / Version 2
File size                                : 2.81 GiB
Duration                                 : 44 min 28 s
Overall bit rate                         : 9 035 kb/s
Encoded date                             : UTC 2018-04-24 23:09:33
Writing application                      : mkvmerge v22.0.0 ('At The End Of The World') 64-bit
Writing library                          : libebml v1.3.5 + libmatroska v1.4.8
Video
ID                                       : 1
Format                                   : AVC
Format/Info                              : Advanced Video Codec
Format profile                           : High@L4
Format settings                          : CABAC / 4 Ref Frames
Format settings, CABAC                   : Yes
Format settings, RefFrames               : 4 frames
Codec ID                                 : V_MPEG4/ISO/AVC
Duration                                 : 44 min 28 s
Bit rate                                 : 8 647 kb/s
Width                                    : 1 920 pixels
Height                                   : 1 080 pixels
Display aspect ratio                     : 16:9
Frame rate mode                          : Variable
Frame rate                               : 50.000 FPS
Original frame rate                      : 25.000 FPS
Standard                                 : Component
Color space                              : YUV
Chroma subsampling                       : 4:2:0
Bit depth                                : 8 bits
Scan type                                : Interlaced
Scan type, store method                  : Separated fields
Scan order                               : Top Field First
Bits/(Pixel*Frame)                       : 0.083
Stream size                              : 2.69 GiB (96%)
Default                                  : Yes
Forced                                   : No
Color range                              : Limited
Color primaries                          : BT.709
Transfer characteristics                 : BT.709
Matrix coefficients                      : BT.709
Audio #1
ID                                       : 2
Format                                   : MPEG Audio
Format version                           : Version 1
Format profile                           : Layer 2
Codec ID                                 : A_MPEG/L2
Codec ID/Hint                            : MP2
Duration                                 : 44 min 28 s
Bit rate mode                            : Constant
Bit rate                                 : 192 kb/s
Channel(s)                               : 2 channels
Sampling rate                            : 48.0 kHz
Frame rate                               : 41.667 FPS (1152 SPF)
Compression mode                         : Lossy
Delay relative to video                  : 50 ms
Stream size                              : 61.1 MiB (2%)
Language                                 : Russian
Default                                  : Yes
Forced                                   : No
Audio #2
ID                                       : 3
Format                                   : MPEG Audio
Format version                           : Version 1
Format profile                           : Layer 2
Codec ID                                 : A_MPEG/L2
Codec ID/Hint                            : MP2
Duration                                 : 44 min 28 s
Bit rate mode                            : Constant
Bit rate                                 : 192 kb/s
Channel(s)                               : 2 channels
Sampling rate                            : 48.0 kHz
Frame rate                               : 41.667 FPS (1152 SPF)
Compression mode                         : Lossy
Delay relative to video                  : 122 ms
Stream size                              : 61.1 MiB (2%)
Language                                 : English
Default                                  : No
Forced                                   : No
 
Не забывайте говорить Спасибо. Не уходите с раздачи!   
Торрент: Зарегистрирован [25 апр 2018, 02:30] Для скачивания .torrent
необходима регистрация
Или скачать с помощью
MediaGet
Статус:
Проверен
 
.torrent скачан: 0 раз
Хэш: 41930e5462c83532c95b1298a706f593c40932ce
Размер: 2.81 ГБ (3 013 192 861 байт)
Стать Автором раздачи
 
 
Раздал: 0 байт
Скачал: 0 байт
Ратио: Inf.
Сообщения: 487468
Зарегистрирован: 17 апр 2014, 13:57


  • Похожие торренты
    Ответы
    Просмотры
    Последнее сообщение

Вернуться в Автоспорт

Ресурс не предоставляет электронные версии произведений, а занимается лишь коллекционированием и каталогизацией ссылок, присылаемых и публикуемых на форуме нашими читателями. Если вы являетесь правообладателем какого-либо представленного материала и не желаете чтобы ссылка на него находилась в нашем каталоге, свяжитесь с нами и мы незамедлительно удалим её. Файлы для обмена на трекере предоставлены пользователями сайта, и администрация не несёт ответственности за их содержание. Просьба не заливать файлы, защищенные авторскими правами, а также файлы нелегального содержания!
cron