Кролик Багз или Дорожный бегун / The Bugs Bunny Road Runner Movie (1979) WEB-DLRip 1080p от KORSAR | D

 
 Статистика раздачи 
Размер: 6.32 ГБ   |  Зарегистрирован: 22 апр 2018, 17:07   |   .torrent скачан: 0 раз
Сидеров: 1  [ 0 байт/сек ]     Личеров: 0  [ 0 байт/сек ]  
  

Кролик Багз или Дорожный бегун / The Bugs Bunny Road Runner Movie (1979) WEB-DLRip 1080p от KORSAR | D

Сообщение Lester » 22 апр 2018, 17:07

Название: Кролик Багз или Дорожный бегун
Оригинальное название: The Bugs Bunny Road Runner Movie
Год выпуска: 1979
Выпущено: США, Warner Bros. Pictures
Жанр: Мультфильм, комедия, семейный
Режиссер: Чак Джоунс, Фил Монро
Роли озвучивали: Мэл Бланк, Артур К. Брайан, Джун Форэй, Николай Шуторов

О фильме:
Мультфильм представляет собой компиляцию из 11 короткометражных мультфильмов серии Looney Tunes. Между мультфильмами показан главный герой — Багз Банни, который рассказывает зрителю о своей жизни и об истории появления погони в кинематографе.

Продолжительность: 01:37:53
Перевод: Дублированный
Субтитры: Английские
Навигация по главам: Есть

Файл
Качество: WEB-DLRip 1080p
Видео: MPEG-4 AVC, 8796 Кбит/сек Кбит/сек, 1480x1080, 23,976 кадра/сек
Аудио #1: AC3, 2 ch, 224 Кбит/сек | Русский, профессиональный (полное дублирование) "Варус видео".
Аудио #2: EAC3, 2 ch, 224 Кбит/сек | Английский, оригинал




Общее
Уникальный идентификатор : 211539669792041896811461653703184525639 (0x9F250EF66FD66BB08657332B1E5AA947)
Полное имя : Кролик.Багз.или.Дорожный.бегун.1979.WEB-DLRip.1080p.KORSAR.mkv
Формат : Matroska
Версия формата : Version 2
Размер файла : 6,32 Гбайт
Продолжительность : 1 ч. 37 м.
Общий поток : 9246 Кбит/сек
Дата кодирования : UTC 2018-04-22 10:25:08
Программа кодирования : mkvmerge v5.8.0 ('No Sleep / Pillow') built on Sep 2 2012 15:37:04
Библиотека кодирования : libebml v1.2.3 + libmatroska v1.3.0

Видео
Идентификатор : 1
Формат : AVC
Формат/Информация : Advanced Video Codec
Профиль формата : High@L4.1
Настройки формата : CABAC / 5 Ref Frames
Параметр CABAC формата : Да
Параметр RefFrames формата : 5 кадров
Идентификатор кодека : V_MPEG4/ISO/AVC
Продолжительность : 1 ч. 37 м.
Битрейт : 8796 Кбит/сек
Ширина : 1480 пикселей
Высота : 1080 пикселей
Соотношение сторон : 1,370
Режим частоты кадров : Постоянный
Частота кадров : 23,976 (24000/1001) кадра/сек
Цветовое пространство : YUV
Субдискретизация насыщенности : 4:2:0
Битовая глубина : 8 бит
Тип развёртки : Прогрессивная
Бит/(Пиксели*Кадры) : 0.230
Размер потока : 5,89 Гбайт (93%)
Заголовок : RIP | MZMA
Библиотека кодирования : x264 core 152 r2851kMod ba24899
Настройки программы : cabac=1 / ref=5 / deblock=1:-2:-2 / analyse=0x3:0x113 / me=umh / subme=11 / psy=1 / fade_compensate=0.00 / psy_rd=1.00:0.00 / mixed_ref=1 / me_range=32 / chroma_me=1 / trellis=2 / 8x8dct=1 / cqm=0 / deadzone=21,11 / fast_pskip=0 / chroma_qp_offset=-2 / threads=6 / lookahead_threads=1 / sliced_threads=0 / nr=0 / decimate=0 / interlaced=0 / bluray_compat=0 / constrained_intra=0 / bframes=16 / b_pyramid=2 / b_adapt=2 / b_bias=0 / direct=3 / weightb=1 / open_gop=0 / weightp=2 / keyint=240 / keyint_min=23 / scenecut=40 / intra_refresh=0 / rc_lookahead=40 / rc=2pass / mbtree=0 / bitrate=8796 / ratetol=1.0 / qcomp=0.60 / qpmin=0 / qpmax=69 / qpstep=4 / cplxblur=20.0 / qblur=0.5 / vbv_maxrate=50000 / vbv_bufsize=62500 / nal_hrd=none / filler=0 / ip_ratio=1.40 / pb_ratio=1.30 / aq=3:0.70
Язык : English
Default : Да
Forced : Нет
Цветовой диапазон : Limited
Основные цвета : BT.709
Характеристики трансфера : BT.709
Коэффициенты матрицы : BT.709

Аудио #1
Идентификатор : 2
Формат : AC-3
Формат/Информация : Audio Coding 3
Идентификатор кодека : A_AC3
Продолжительность : 1 ч. 37 м.
Вид битрейта : Постоянный
Битрейт : 224 Кбит/сек
Каналы : 2 канала
Расположение каналов : Front: L R
Частота : 48,0 КГц
Частота кадров : 31,250 кадров/сек (1536 SPF)
Битовая глубина : 16 бит
Метод сжатия : С потерями
Размер потока : 157 Мбайт (2%)
Заголовок : DUB | Варус видео
Язык : Russian
По умолчанию : Да
Принудительно : Нет

Аудио #2
Идентификатор : 3
Формат : E-AC-3
Формат/Информация : Enhanced Audio Coding 3
Идентификатор кодека : A_EAC3
Продолжительность : 1 ч. 37 м.
Вид битрейта : Постоянный
Битрейт : 224 Кбит/сек
Каналы : 2 канала
Расположение каналов : Front: L R
Частота : 48,0 КГц
Частота кадров : 187,500 кадров/сек (256 SPF)
Метод сжатия : С потерями
Размер потока : 157 Мбайт (2%)
Заголовок : Original
Язык : English
По умолчанию : Нет
Принудительно : Нет

Текст
Идентификатор : 4
Формат : UTF-8
Идентификатор кодека : S_TEXT/UTF8
Идентификатор кодека/Информация : UTF-8 Plain Text
Язык : English
По умолчанию : Нет
Принудительно : Нет

Меню
00:00:00.000 : en:Studio Logo
00:00:14.000 : en:Opening Credits
00:01:18.000 : en:Bugs Bunny Introduces Himself
00:02:40.000 : en:The History of Chases
00:05:26.000 : en:The Birth of Comedy
00:07:34.000 : en:Hare-Way to the Stars
00:09:12.000 : en:Bugs Bunny Tries to Get Home
00:11:11.000 : en:The Martians Chase Bugs
00:12:39.000 : en:Bugs Gets Away
00:13:47.000 : en:Duck Dodgers in the 24½th Century
00:17:03.000 : en:Dodgers Lands on Planet X
00:19:24.000 : en:Dodgers Uses His Secret Weapon
00:20:27.000 : en:Robin Hood Daffy
00:20:53.000 : en:Robin Hood Sings
00:23:20.000 : en:Robin Hood Wants to Prove His Identity
00:26:09.000 : en:Duck Amuck
00:26:24.000 : en:Daffy Duck Vs The Animator
00:32:44.000 : en:Bully For Bugs
00:34:57.000 : en:Bugs Bunny Vs the Bull
00:36:13.000 : en:Bugs and the Bull Continue to Pursue Each Other
00:39:26.000 : en:Ali Baba Bunny
00:41:59.000 : en:Hassan Pursues Daffy
00:44:18.000 : en:Bugs Gets Rid of Hassan
00:45:09.000 : en:Daffy Finds an Actual Genie
00:46:17.000 : en:Rabbit Fire
00:49:31.000 : en:Wabbit vs Duck Season
00:52:02.000 : en:Elmer Pursues Bugs and Daffy
00:53:26.000 : en:For Scent-imental Reasons
00:56:11.000 : en:Pepe Seaches for Penelope
00:58:47.000 : en:The Tables Turn
00:59:30.000 : en:Long-Haired Hare
01:02:27.000 : en:Bugs Gets His Revenge
01:05:08.000 : en:What's Opera, Doc
01:07:51.000 : en:Bugs Disguises Himself as Brunhilde
01:09:23.000 : en:Elmer and Bugs Duet
01:10:10.000 : en:Bugs' Disguise Falls Apart
01:11:42.000 : en:Operation Rabbit
01:13:16.000 : en:Wile E. Coyote Tries to Cook Bugs
01:14:51.000 : en:Wile E. Coyote Tries Again
01:16:04.000 : en:Wile E. Coyote Pursues the Road Runner
01:19:49.000 : en:Wile E. Coyote Sets Roadside Traps
01:23:16.000 : en:Wile E. Coyote Works with Boulders
01:26:31.000 : en:Wile E. Coyote Tries More Acme Products
01:29:36.000 : en:Wile E. Coyote Buys Earthquake Pills
01:32:40.000 : en:Wile E. Coyote Tries Catapults and Rockets
01:35:24.000 : en:The Importance of Laughter
01:36:45.000 : en:End Credits

• Исходник видео WEB-DL Amazon.

Релиз от:
 
Не забывайте говорить Спасибо. Не уходите с раздачи!   
Торрент: Зарегистрирован [22 апр 2018, 17:07] Скачать торрент
Скачать торрент
[ Размер 32.58 КБ / Просмотров 4 ]
Статус:
Проверен
 
.torrent скачан: 0 раз
Хэш: f13ffacff07d6d8bdf07cdb111bffda9ca2e10bc
Размер: 6.32 ГБ (6 787 873 460 байт)
Стать Автором раздачи
 
 
Раздал: 100 ГБ
Скачал: 0 байт
Ратио: Seed.
Сообщения: 130674
Зарегистрирован: 09 апр 2015, 23:00


  • Похожие торренты
    Ответы
    Просмотры
    Последнее сообщение

Вернуться в Мультфильмы и мультсериалы

Ресурс не предоставляет электронные версии произведений, а занимается лишь коллекционированием и каталогизацией ссылок, присылаемых и публикуемых на форуме нашими читателями. Если вы являетесь правообладателем какого-либо представленного материала и не желаете чтобы ссылка на него находилась в нашем каталоге, свяжитесь с нами и мы незамедлительно удалим её. Файлы для обмена на трекере предоставлены пользователями сайта, и администрация не несёт ответственности за их содержание. Просьба не заливать файлы, защищенные авторскими правами, а также файлы нелегального содержания!
cron