Антон Шипулин. Специальный репортаж / Матч ТВ HD [21.04.2018, Биатлон, HDTV/1080i, TS/H.264, RU]

 
 Статистика раздачи 
Размер: 912.16 МБ   |  Зарегистрирован: 21 апр 2018, 19:40   |   .torrent скачан: 0 раз
Сидеров: 1  [ 0 байт/сек ]     Личеров: 0  [ 0 байт/сек ]  
  

Антон Шипулин. Специальный репортаж / Матч ТВ HD [21.04.2018, Биатлон, HDTV/1080i, TS/H.264, RU]

Сообщение Nakazhu » 21 апр 2018, 19:40

Антон Шипулин. Специальный репортаж
Вид спорта: Биатлон
Комментарий: Профессиональный
Язык комментариев: Русский
Описание: Российский биатлонист Антон Шипулин - о неудачном сезоне, болезнях и Александре Тихонове.
Автор рипа: Настольный теннисист
Качество: HDTV
Формат: TS
Видео кодек: AVC
Аудио кодек: MP2
Видео: MPEG4 Video (H264) 1920x1080 (16:9) 25fps 7485kbps
Аудио 1-2: MPEG Audio 48000Hz stereo 192kbps
00:15:23
Код: Выделить всё
General
ID                                       : 1 (0x1)
Complete name                            : Y:\раздачи\Антон Шипулин. 21.04.2018. Злобный.ts
Format                                   : MPEG-TS
File size                                : 912 MiB
Duration                                 : 15 min 23 s
Overall bit rate mode                    : Variable
Overall bit rate                         : 8 282 kb/s
Video
ID                                       : 204 (0xCC)
Menu ID                                  : 2204 (0x89C)
Format                                   : AVC
Format/Info                              : Advanced Video Codec
Format profile                           : High@L4
Format settings, CABAC                   : Yes
Format settings, RefFrames               : 4 frames
Codec ID                                 : 27
Duration                                 : 15 min 23 s
Bit rate                                 : 7 485 kb/s
Width                                    : 1 920 pixels
Height                                   : 1 080 pixels
Display aspect ratio                     : 16:9
Frame rate                               : 25.000 FPS
Standard                                 : Component
Color space                              : YUV
Chroma subsampling                       : 4:2:0
Bit depth                                : 8 bits
Scan type                                : Interlaced
Scan type, store method                  : Separated fields
Scan order                               : Top Field First
Bits/(Pixel*Frame)                       : 0.144
Stream size                              : 824 MiB (90%)
Color range                              : Limited
Color primaries                          : BT.709
Transfer characteristics                 : BT.709
Matrix coefficients                      : BT.709
Audio #1
ID                                       : 304 (0x130)
Menu ID                                  : 2204 (0x89C)
Format                                   : MPEG Audio
Format version                           : Version 1
Format profile                           : Layer 2
Codec ID                                 : 3
Duration                                 : 15 min 23 s
Bit rate mode                            : Constant
Bit rate                                 : 192 kb/s
Channel(s)                               : 2 channels
Sampling rate                            : 48.0 kHz
Compression mode                         : Lossy
Delay relative to video                  : -80 ms
Stream size                              : 21.1 MiB (2%)
Language                                 : Russian
Audio #2
ID                                       : 305 (0x131)
Menu ID                                  : 2204 (0x89C)
Format                                   : MPEG Audio
Format version                           : Version 1
Format profile                           : Layer 2
Codec ID                                 : 3
Duration                                 : 15 min 23 s
Bit rate mode                            : Constant
Bit rate                                 : 192 kb/s
Channel(s)                               : 2 channels
Sampling rate                            : 48.0 kHz
Compression mode                         : Lossy
Delay relative to video                  : -80 ms
Stream size                              : 21.1 MiB (2%)
 
Не забывайте говорить Спасибо. Не уходите с раздачи!   
Торрент: Зарегистрирован [21 апр 2018, 19:40] Скачать торрент
Скачать торрент
[ Размер 18.3 КБ / Просмотров 11 ]
Статус:
Проверен
 
.torrent скачан: 0 раз
Хэш: 7bfb07b98e87853a6d6ca046658dd3b7e3aade12
Размер: 912.16 МБ (956 471 244 байт)
Стать Автором раздачи
 
 
Раздал: 0 байт
Скачал: 0 байт
Ратио: Inf.
Сообщения: 487468
Зарегистрирован: 17 апр 2014, 13:57


  • Похожие торренты
    Ответы
    Просмотры
    Последнее сообщение

Вернуться в Биатлон

Ресурс не предоставляет электронные версии произведений, а занимается лишь коллекционированием и каталогизацией ссылок, присылаемых и публикуемых на форуме нашими читателями. Если вы являетесь правообладателем какого-либо представленного материала и не желаете чтобы ссылка на него находилась в нашем каталоге, свяжитесь с нами и мы незамедлительно удалим её. Файлы для обмена на трекере предоставлены пользователями сайта, и администрация не несёт ответственности за их содержание. Просьба не заливать файлы, защищенные авторскими правами, а также файлы нелегального содержания!
cron