(Avant-garde, Experimental Metal, Instrumental) [WEB] Buckethead / Bucketheadland - Pikes, CD+WEB, FLAC (tracks), lossless

 
 Статистика раздачи 
Размер: 54.96 ГБ   |  Зарегистрирован: 20 апр 2018, 18:37   |   .torrent скачан: 0 раз
Сидеров: 1  [ 0 байт/сек ]     Личеров: 0  [ 0 байт/сек ]  
  

(Avant-garde, Experimental Metal, Instrumental) [WEB] Buckethead / Bucketheadland - Pikes, CD+WEB, FLAC (tracks), lossless

Сообщение Nakazhu » 20 апр 2018, 18:37


Buckethead / Bucketheadland Pikes Collection

Жанр: Avant-garde, Experimental Metal, Instrumental
Носитель: WEB, CD, Album
Страна-производитель диска (релиза): USA
Год издания: 2011-2017
Страна исполнителя (группы): USA
Аудиокодек: FLAC (*.flac)
Тип рипа: tracks, tracks+.cue
Битрейт аудио: lossless
Наличие сканов в содержимом раздачи: Нет (фронтальная обложка)
Источник (релизер): WEB, CD
Искренняя благоДАРность: DMMANIAC ®
Исполнитель: Bucketheadland
Альбом: It's Alive
Дата выпуска: 2011
Формат: FLAC (tracks)
Продолжительность: 00:30:58
Треклист:
01. Lebrontron [00:06:22]
02. Tonka [00:03:16]
03. Peeling Out [00:00:15]
04. Barnyard Banties [00:02:27]
05. Crack the Sky [00:05:06]
06. The Hatch [00:03:59]
07. Brooding Peeps [00:04:52]
08. Picking the Feathers [00:04:40]
AUDIOCHECKER v2.0 beta (build 457)
-=== DO NOT EDIT THIS FILE! ===-
Path: ...\01 - It's Alive (2011)
1 -=- 01 - Lebrontron.flac -=- CDDA (100%)
2 -=- 02 - Tonka.flac -=- CDDA (100%)
3 -=- 03 - Peeling Out.flac -=- CDDA (100%)
4 -=- 04 - Barnyard Banties.flac -=- CDDA (100%)
5 -=- 05 - Crack the Sky.flac -=- CDDA (100%)
6 -=- 06 - The Hatch.flac -=- CDDA (100%)
7 -=- 07 - Brooding Peeps.flac -=- CDDA (100%)
8 -=- 08 - Picking the Feathers.flac -=- CDDA (100%)
Summary 100,00% CDDA
101633252
#77Исполнитель: Bucketheadland
Альбом: Empty Space
Тип релиза: web
Жанр: Avant-garde, Experimental Metal,, Instrumental
Дата выпуска: 2011
Страна: USA
Формат: FLAC (tracks)
Битрейт: 778-948 kbps
Продолжительность: 00:31:59
Источник: web
Треклист:
01. Comb and Wattles [00:03:19]
02. Wormers [00:03:22]
03. Empty Space [00:04:21]
04. Dummy Egg [00:02:55]
05. Pullets [00:04:41]
06. Perched [00:03:19]
07. Hatched [00:03:22]
08. Portable Pen [00:02:22]
09. Leghorn [00:03:02]
10. Scrape the Dirt Off [00:01:12]
AUDIOCHECKER v2.0 beta (build 457) - by Dester - opdester@freemail.hu
~~~~~~~~~~~~~~~~~~~~~~~~~~~~~~~~~~
-=== DO NOT EDIT THIS FILE! ===-
Path: ...\02 - Empty Space (2011)
01 -=- 01 - Comb and Wattles.flac -=- CDDA (100%)
02 -=- 02 - Wormers.flac -=- CDDA (100%)
03 -=- 03 - Empty Space.flac -=- CDDA (99%)
04 -=- 04 - Dummy Egg.flac -=- CDDA (100%)
05 -=- 05 - Pullets.flac -=- CDDA (100%)
06 -=- 06 - Perched.flac -=- CDDA (99%)
07 -=- 07 - Hatched.flac -=- CDDA (100%)
08 -=- 08 - Portable Pen.flac -=- CDDA (100%)
09 -=- 09 - Leghorn.flac -=- CDDA (100%)
10 -=- 10 - Scrape the Dirt Off.flac -=- CDDA (99%)
Summary 99,70% CDDA
132590356
#77Исполнитель: Bucketheadland
Альбом: 3 Foot Clearance
Тип релиза: web
Жанр: Avant-garde, Experimental Metal,, Instrumental
Дата выпуска: 2011
Страна: usa
Формат: FLAC (tracks)
Битрейт: 492-988 kbps
Продолжительность: 00:40:02
Треклист:
01. Griffin's S0[00:04:07]
02. Rammelzee : Hero of the Abyss [00:04:00]
03. Floating Graveyard [00:03:18]
04. Ballad of Jerry Mano [00:04:55]
05. HD Autospy [00:03:17]
06. Droid Hunt [00:02:44]
07. Battlefields [00:03:11]
08. Handprint Ornament [00:02:46]
09. 3 Headed Guardian [00:03:56]
10. Harpoon the Goon [00:02:28]
11. Critical Assignement Leg [00:02:33]
12. Siamese Butterfly [00:01:54]
13. Xray [00:00:49]
AUDIOCHECKER v2.0 beta (build 457) - by Dester - opdester@freemail.hu
~~~~~~~~~~~~~~~~~~~~~~~~~~~~~~~~~~
-=== DO NOT EDIT THIS FILE! ===-
Path: ...\03 - 3 Foot Clearance (2011)
01 -=- 01 - Griffin's Spike.flac -=- CDDA (100%)
02 -=- 02 - Rammelzee Hero of the Abyss.flac -=- CDDA (100%)
03 -=- 03 - Floating Graveyard.flac -=- CDDA (99%)
04 -=- 04 - Ballad of Jerry Mano.flac -=- CDDA (100%)
05 -=- 05 - HD Autospy.flac -=- CDDA (100%)
06 -=- 06 - Droid Hunt.flac -=- CDDA (100%)
07 -=- 07 - Battlefields.flac -=- CDDA (100%)
08 -=- 08 - Handprint Ornament.flac -=- CDDA (99%)
09 -=- 09 - 3 Headed Guardian.flac -=- CDDA (100%)
10 -=- 10 - Harpoon the Goon.flac -=- CDDA (100%)
11 -=- 11 - Critical Assignement Leg.flac -=- CDDA (100%)
12 -=- 12 - Siamese Butterfly.flac -=- CDDA (100%)
13 -=- 13 - Xray.flac -=- CDDA (62%)
Summary 96,92% CDDA
262518980
#77Исполнитель: Bucketheadland
Альбом: Underground Chamber
Жанр: Avant-garde, Experimental Metal, Instrumental
Дата выпуска: 2011
Страна: USA
Формат: FLAC (tracks)
Продолжительность: 00:30:46
Источник: WEB
Треклист:
01. Underground Chamber, Pt. 1 [00:02:13]
02. Underground Chamber, Pt. 2 [00:02:33]
03. Underground Chamber, Pt. 3 [00:03:31]
04. Underground Chamber, Pt. 4 [00:03:25]
05. Underground Chamber, Pt. 5 [00:02:28]
06. Underground Chamber, Pt. 6 [00:02:50]
07. Underground Chamber, Pt. 7 [00:01:41]
08. Underground Chamber, Pt. 8 [00:02:42]
09. Underground Chamber, Pt. 9 [00:04:27]
10. Underground Chamber, Pt. 10 [00:04:51]
Доп. информация: released 17 August 2011
More information: http://music.bucketheadpikes.com/album/underground-chamber
AUDIOCHECKER v2.0 beta (build 457) - by Dester - opdester@freemail.hu
~~~~~~~~~~~~~~~~~~~~~~~~~~~~~~~~~~
-=== DO NOT EDIT THIS FILE! ===-
Path: ...\04 - Underground Chamber (2011)
01 -=- 01 - Underground Chamber, Pt. 1.flac -=- CDDA (100%)
02 -=- 02 - Underground Chamber, Pt. 2.flac -=- CDDA (100%)
03 -=- 03 - Underground Chamber, Pt. 3.flac -=- CDDA (100%)
04 -=- 04 - Underground Chamber, Pt. 4.flac -=- CDDA (100%)
05 -=- 05 - Underground Chamber, Pt. 5.flac -=- CDDA (100%)
06 -=- 06 - Underground Chamber, Pt. 6.flac -=- CDDA (100%)
07 -=- 07 - Underground Chamber, Pt. 7.flac -=- CDDA (100%)
08 -=- 08 - Underground Chamber, Pt. 8.flac -=- CDDA (100%)
09 -=- 09 - Underground Chamber, Pt. 9.flac -=- CDDA (100%)
10 -=- 10 - Underground Chamber, Pt. 10.flac -=- CDDA (100%)
Summary 100,00% CDDA
117121140
#77Исполнитель: Bucketheadland
Альбом: Look Up There
Жанр: Avant-garde, Experimental Metal, Instrumental
Дата выпуска: 2011
Страна: USA
Формат: FLAC (tracks)
Продолжительность: 00:32:27
Источник: WEB
Треклист:
01. Golden Eyes [00:10:49]
02. Look Up There [00:21:38]
Доп. информация: released 17 August 2011
More information: http://music.bucketheadpikes.com/album/look-up-there
Лог проверки качества
AUDIOCHECKER v2.0 beta (build 457) - by Dester - opdester@freemail.hu
~~~~~~~~~~~~~~~~~~~~~~~~~~~~~~~~~~
-=== DO NOT EDIT THIS FILE! ===-
Path: ...\05 - Look Up There (2011)
1 -=- 01 - Golden Eyes.flac -=- CDDA (100%)
2 -=- 02 - Look Up There.flac -=- MPEG (95%)
Summary 52,50% CDDA
267500580
#771. Balloon Cement (3:07)
2. Red Water Colors (3:47)
3. Transport Void (0:46)
4. Thistle Museum (0:46)
5. Alligator Eye (1:59)
6. Veil of Tinfoil (4:35)
7. Chestplate (1:18)
8. Vast Mound (2:06)
9. Replacement Shell (4:12)
10. Shatter Shell (5:02)
11. Bridge to Borg (0:55)
12. Evaporate (1:38)
released 17 May 2012
More information: http://music.bucketheadpikes.com/album/balloon-cement
Код: Выделить всё
AUDIOCHECKER v2.0 beta (build 457) - by Dester - opdester@freemail.hu
~~~~~~~~~~~~~~~~~~~~~~~~~~~~~~~~~~
-=== DO NOT EDIT THIS FILE! ===-
Path: ...\06 - Balloon Cement (2012)
01 -=- 01 - Balloon Cement.flac -=- CDDA (100%)
02 -=- 02 - Red Water Colors.flac -=- CDDA (100%)
03 -=- 03 - Transport Void.flac -=- CDDA (58%)
04 -=- 04 - Thistle Museum.flac -=- CDDA (100%)
05 -=- 05 - Alligator Eye Viewer.flac -=- CDDA (100%)
06 -=- 06 - Veil of Tinfoil.flac -=- CDDA (100%)
07 -=- 07 - Chestplate.flac -=- CDDA (100%)
08 -=- 08 - Vast Mound.flac -=- CDDA (99%)
09 -=- 09 - Replacement Nail.flac -=- CDDA (100%)
10 -=- 10 - Shatter Shell.flac -=- CDDA (42%)
11 -=- 11 - Bridge to Borg.flac -=- CDDA (100%)
12 -=- 12 - Evaporate.flac -=- MPEG (89%)
Summary 84,17% CDDA
220387636
#771. Intro (0:49)
2. The Shores of Molokai (4:18)
3. The 5 Masters of Decapitation (3:58)
4. Henry's New Home (2:15)
5. Counter Clockwise (2:23)
6. Stumps on Stilts (2:58)
7. Mannequins Are My Friend (2:13)
8. Smile Without a Face (2:54)
9. Hatchet (4:45)
10. Thermal Exhaust Port (2:35)
11. Melting Man (2:31)
released 09 August 2012
More information: http://music.bucketheadpikes.com/album/the-shores-of-molokai
Код: Выделить всё
AUDIOCHECKER v2.0 beta (build 457) - by Dester - opdester@freemail.hu
~~~~~~~~~~~~~~~~~~~~~~~~~~~~~~~~~~
-=== DO NOT EDIT THIS FILE! ===-
Path: ...\07 - The Shores of Molokai (2012)
01 -=- 01 - Intro.flac -=- CDDA (100%)
02 -=- 02 - The Shores of Molokai.flac -=- CDDA (99%)
03 -=- 03 - The 5 Masters of Decapitation.flac -=- CDDA (100%)
04 -=- 04 - Henry's New Home.flac -=- CDDA (100%)
05 -=- 05 - Counter Clockwise.flac -=- CDDA (99%)
06 -=- 06 - Stumps on Stilts.flac -=- CDDA (99%)
07 -=- 07 - Mannequins Are My Friend.flac -=- CDDA (100%)
08 -=- 08 - Smile Without a Face.flac -=- CDDA (100%)
09 -=- 09 - Hatchet.flac -=- CDDA (100%)
10 -=- 10 - Thermal Exhaust Port.flac -=- CDDA (100%)
11 -=- 11 - Melting Man.flac -=- CDDA (100%)
Summary 99,73% CDDA
176006308
#771. The Snow Rabbit (3:23)
2. Telekinite (2:58)
3. Asbury Park Boardwalk (3:15)
4. Castle of Dr. Cadaver (2:24)
5. Sunbursts (3:41)
6. Chamber of Slunks (1:18)
7. Spiderwall (1:19)
8. Coffin for a Penny (2:00)
9. Fomahaut (2:07)
10. The Patrolman (7:30)
released 20 September 2012
More information: http://music.bucketheadpikes.com/album/racks
Код: Выделить всё
AUDIOCHECKER v2.0 beta (build 457) - by Dester - opdester@freemail.hu
~~~~~~~~~~~~~~~~~~~~~~~~~~~~~~~~~~
-=== DO NOT EDIT THIS FILE! ===-
Path: ...\08 - Racks (2012)
01 -=- 01 - The Snow Rabbit.flac -=- CDDA (100%)
02 -=- 02 - Telekinite.flac -=- CDDA (100%)
03 -=- 03 - Asbury Park Boardwalk.flac -=- CDDA (100%)
04 -=- 04 - Castle of Dr. Cadaver.flac -=- CDDA (100%)
05 -=- 05 - Sunbursts.flac -=- MPEG (95%)
06 -=- 06 - Chamber of Slunks.flac -=- CDDA (100%)
07 -=- 07 - Spiderwall.flac -=- MPEG (89%)
08 -=- 08 - Coffin for a Penny.flac -=- CDDA (100%)
09 -=- 09 - Fomahaut.flac -=- CDDA (100%)
10 -=- 10 - The Patrolman.flac -=- CDDA (100%)
Summary 81,60% CDDA
234193124
#771. Magellan's Maze (2:57)
2. Burying Toys (2:12)
3. Malbert's Strut (3:18)
4. Happy Landing (2:20)
5. The Robot Who Lost Its Head (3:58)
6. Thud (1:40)
7. Satellite Invaders (3:10)
8. The Other Side of the Island (2:43)
9. Ghost Coop (3:26)
10. The Raid (3:05)
11. Vault (1:52)
released 20 September 2012
More information: http://music.bucketheadpikes.com/album/march-of-the-slunks
Код: Выделить всё
AUDIOCHECKER v2.0 beta (build 457) - by Dester - opdester@freemail.hu
~~~~~~~~~~~~~~~~~~~~~~~~~~~~~~~~~~
-=== DO NOT EDIT THIS FILE! ===-
Path: ...\09 - March of the Slunks (2012)
01 -=- 01 - Magellan's Maze.flac -=- CDDA (100%)
02 -=- 02 - Burying Toys.flac -=- CDDA (100%)
03 -=- 03 - Malbert's Strut.flac -=- MPEG (95%)
04 -=- 04 - Happy Landing.flac -=- CDDA (100%)
05 -=- 05 - The Robot Who Lost Its Head.flac -=- CDDA (100%)
06 -=- 06 - Thud.flac -=- CDDA (99%)
07 -=- 07 - Satellite Invaders.flac -=- MPEG (95%)
08 -=- 08 - The Other Side of the Island.flac -=- CDDA (100%)
09 -=- 09 - Ghost Coop.flac -=- MPEG (95%)
10 -=- 10 - The Raid.flac -=- CDDA (100%)
11 -=- 11 - Vault.flac -=- CDDA (100%)
Summary 74,00% CDDA
194864740
#771. Dweller by the Dark Stream (2:45)
2. Blind Cyclops (4:09)
3. Flea Market (3:29)
4. Three Steps (2:52)
5. Beam of Omega (3:04)
6. Whirlirbird (3:01)
7. Ropelight (2:45)
8. Flashes (1:06)
9. Melting Man part 2 (6:38)
released 20 September 2012
More information: http://music.bucketheadpikes.com/album/the-silent-picture-book
Код: Выделить всё
AUDIOCHECKER v2.0 beta (build 457) - by Dester - opdester@freemail.hu
~~~~~~~~~~~~~~~~~~~~~~~~~~~~~~~~~~
-=== DO NOT EDIT THIS FILE! ===-
Path: ...\010 - The Silent Picture Book (2012)
1 -=- 01 - Dweller by the Dark Stream.flac -=- CDDA (100%)
2 -=- 02 - Blind Cyclops.flac -=- MPEG (95%)
3 -=- 03 - Flea Market.flac -=- CDDA (100%)
4 -=- 04 - Three Steps.flac -=- CDDA (100%)
5 -=- 05 - Beam of Omega.flac -=- CDDA (100%)
6 -=- 06 - Whirlirbird.flac -=- CDDA (100%)
7 -=- 07 - Ropelight.flac -=- CDDA (100%)
8 -=- 08 - Flashes.flac -=- MPEG (100%)
9 -=- 09 - Melting Man part 2.flac -=- MPEG (95%)
Summary 67,78% CDDA
267021716
#771. Disintergration (4:58)
2. Corpse Be Animated (3:42)
3. Faded From View (8:47)
4. Yellowed Pages (1:42)
5. Beginning Putrification (6:08)
6. Decay (4:28)
7. Forgotten Library (1:29)
released 04 June 2013
More information: http://music.bucketheadpikes.com/album/forgotten-library
Код: Выделить всё
AUDIOCHECKER v2.0 beta (build 457) - by Dester - opdester@freemail.hu
~~~~~~~~~~~~~~~~~~~~~~~~~~~~~~~~~~
-=== DO NOT EDIT THIS FILE! ===-
Path: ...\011 - Forgotten Library (2013)
1 -=- 01 - Disintergration.flac -=- CDDA (99%)
2 -=- 02 - Corpse Be Animated.flac -=- CDDA (99%)
3 -=- 03 - Faded From View.flac -=- CDDA (100%)
4 -=- 04 - Yellowed Pages.flac -=- MPEG (80%)
5 -=- 05 - Beginning Putrification.flac -=- CDDA (100%)
6 -=- 06 - Decay.flac -=- CDDA (100%)
7 -=- 07 - Forgotten Library.flac -=- CDDA (99%)
Summary 88,14% CDDA
15027588
#771. Propellar (6:15)
2. Room of Shells (2:02)
3. Meeting of the Mummy (3:33)
4. The Poultry Show (4:16)
5. Launched (11:48)
6. Dome (2:13)
released 21 July 2014
More information: http://music.bucketheadpikes.com/album/propellar
Код: Выделить всё
AUDIOCHECKER v2.0 beta (build 457) - by Dester - opdester@freemail.hu
~~~~~~~~~~~~~~~~~~~~~~~~~~~~~~~~~~
-=== DO NOT EDIT THIS FILE! ===-
Path: ...\012 - Propellar (2014)
1 -=- 01 - Propellar.flac -=- CDDA (100%)
2 -=- 02 - Room of Shells.flac -=- CDDA (100%)
3 -=- 03 - Meeting of the Mummy.flac -=- CDDA (100%)
4 -=- 04 - The Poultry Show.flac -=- CDDA (99%)
5 -=- 05 - Launched.flac -=- CDDA (100%)
6 -=- 06 - Dome.flac -=- MPEG (80%)
Summary 86,50% CDDA
263881380
#77Label/Cat#: Not On Label (Buckethead Self-released) – 13
Country: US
Year: 13 May 2013
Genre: Rock
Style: Art Rock, Instrumental, Soft Rock, Acoustic
Format: CD, Album
Tracklist
1. Untitled (2:37)
2. Untitled (5:21)
3. Untitled (2:38)
4. Untitled (3:09)
5. Untitled (3:32)
6. Untitled (8:59)
7. Untitled (2:40)
8. Untitled (2:50)
9. Untitled (1:28)
Total length: 33:14
More information: http://www.discogs.com/Bucketheadland-Pike-13/release/4602536
Код: Выделить всё
Exact Audio Copy V1.0 beta 3 from 29. August 2011
EAC extraction logfile from 22. August 2013, 19:58
Buckethead / 013
Used drive  : HP      DVD Writer 1260t   Adapter: 2  ID: 0
Read mode               : Secure
Utilize accurate stream : Yes
Defeat audio cache      : Yes
Make use of C2 pointers : No
Read offset correction                      : 6
Overread into Lead-In and Lead-Out          : No
Fill up missing offset samples with silence : Yes
Delete leading and trailing silent blocks   : No
Null samples used in CRC calculations       : Yes
Used interface                              : Native Win32 interface for Win NT & 2000
Gap handling                                : Appended to previous track
Used output format              : User Defined Encoder
Selected bitrate                : 1024 kBit/s
Quality                         : High
Add ID3 tag                     : No
Command line compressor         : C:\Program Files (x86)\FLAC\flac.exe
Additional command line options : -8 -V -T "ARTIST=%artist%" -T "TITLE=%title%" -T "ALBUM=%albumtitle%" -T "DATE=%year%" -T "TRACKNUMBER=%tracknr%" -T "GENRE=%genre%" -T "PERFORMER=%albuminterpret%" -T "COMPOSER=%composer%" %haslyrics%--tag-from-file=LYRICS="%lyricsfile%"%haslyrics% -T "ALBUMARTIST=%albumartist%" -T "DISCNUMBER=%cdnumber%" -T "TOTALDISCS=%totalcds%" -T "TOTALTRACKS=%numtracks%" -T "COMMENT=%comment%" %source% -o %dest%
TOC of the extracted CD
     Track |   Start  |  Length  | Start sector | End sector
    ---------------------------------------------------------
        1  |  0:00.00 |  2:36.40 |         0    |    11739
        2  |  2:36.40 |  5:20.62 |     11740    |    35801
        3  |  7:57.27 |  2:37.70 |     35802    |    47646
        4  | 10:35.22 |  3:09.26 |     47647    |    61847
        5  | 13:44.48 |  3:32.03 |     61848    |    77750
        6  | 17:16.51 |  8:59.17 |     77751    |   118192
        7  | 26:15.68 |  2:40.29 |    118193    |   130221
        8  | 28:56.22 |  2:50.21 |    130222    |   142992
        9  | 31:46.43 |  1:28.03 |    142993    |   149595
Track  1
     Filename K:\Buckethead - 013 (2013) FLAC\01 - Track01.wav
     Pre-gap length  0:00:02.00
     Peak level 17.6 %
     Extraction speed 1.6 X
     Track quality 100.0 %
     Test CRC 6BDFE8F2
     Copy CRC 6BDFE8F2
     Accurately ripped (confidence 2)  [97C0A0F8]  (AR v2)
     Copy OK
Track  2
     Filename K:\Buckethead - 013 (2013) FLAC\02 - Track02.wav
     Pre-gap length  0:00:02.01
     Peak level 99.2 %
     Extraction speed 2.1 X
     Track quality 100.0 %
     Test CRC 943123FB
     Copy CRC 943123FB
     Accurately ripped (confidence 2)  [F0D46C27]  (AR v2)
     Copy OK
Track  3
     Filename K:\Buckethead - 013 (2013) FLAC\03 - Track03.wav
     Pre-gap length  0:00:02.01
     Peak level 66.6 %
     Extraction speed 2.0 X
     Track quality 100.0 %
     Test CRC D8A1058B
     Copy CRC D8A1058B
     Accurately ripped (confidence 2)  [ED20E7FE]  (AR v2)
     Copy OK
Track  4
     Filename K:\Buckethead - 013 (2013) FLAC\04 - Track04.wav
     Pre-gap length  0:00:02.01
     Peak level 28.2 %
     Extraction speed 2.2 X
     Track quality 100.0 %
     Test CRC 87A7B314
     Copy CRC 87A7B314
     Accurately ripped (confidence 2)  [0864B4A0]  (AR v2)
     Copy OK
Track  5
     Filename K:\Buckethead - 013 (2013) FLAC\05 - Track05.wav
     Pre-gap length  0:00:02.01
     Peak level 62.5 %
     Extraction speed 2.4 X
     Track quality 100.0 %
     Test CRC 269F9988
     Copy CRC 269F9988
     Accurately ripped (confidence 2)  [F60E62D7]  (AR v2)
     Copy OK
Track  6
     Filename K:\Buckethead - 013 (2013) FLAC\06 - Track06.wav
     Pre-gap length  0:00:02.01
     Peak level 100.0 %
     Extraction speed 2.9 X
     Track quality 100.0 %
     Test CRC 7FEB1E18
     Copy CRC 7FEB1E18
     Accurately ripped (confidence 2)  [C1F28C8D]  (AR v2)
     Copy OK
Track  7
     Filename K:\Buckethead - 013 (2013) FLAC\07 - Track07.wav
     Pre-gap length  0:00:02.01
     Peak level 71.3 %
     Extraction speed 2.7 X
     Track quality 100.0 %
     Test CRC 54158934
     Copy CRC 54158934
     Accurately ripped (confidence 2)  [6681091B]  (AR v2)
     Copy OK
Track  8
     Filename K:\Buckethead - 013 (2013) FLAC\08 - Track08.wav
     Pre-gap length  0:00:02.01
     Peak level 90.4 %
     Extraction speed 1.9 X
     Track quality 99.9 %
     Test CRC 143F7C3C
     Copy CRC 143F7C3C
     Accurately ripped (confidence 2)  [37F8EDAD]  (AR v2)
     Copy OK
Track  9
     Filename K:\Buckethead - 013 (2013) FLAC\09 - Track09.wav
     Pre-gap length  0:00:02.01
     Peak level 16.7 %
     Extraction speed 2.4 X
     Track quality 100.0 %
     Test CRC 8AABFEC7
     Copy CRC 8AABFEC7
     Accurately ripped (confidence 2)  [4D170C54]  (AR v2)
     Copy OK
All tracks accurately ripped
No errors occurred
End of status report
==== Log checksum 60BC2BC647346113A33B2FF5497AD61DFC8CB59AC77E0EC8B161D75400CE0767 ====
Код: Выделить всё
PERFORMER "Buckethead"
TITLE "013"
REM DATE 2013
REM DISCNUMBER 1
REM TOTALDISCS 1
FILE "01 - Track01.flac" WAVE
  TRACK 01 AUDIO
    PERFORMER "Buckethead"
    TITLE "Track01"
    INDEX 01 00:00:00
  TRACK 02 AUDIO
    PERFORMER "Buckethead"
    TITLE "Track02"
    INDEX 00 02:34:39
FILE "02 - Track02.flac" WAVE
    INDEX 01 00:00:00
  TRACK 03 AUDIO
    PERFORMER "Buckethead"
    TITLE "Track03"
    INDEX 00 05:18:61
FILE "03 - Track03.flac" WAVE
    INDEX 01 00:00:00
  TRACK 04 AUDIO
    PERFORMER "Buckethead"
    TITLE "Track04"
    INDEX 00 02:35:69
FILE "04 - Track04.flac" WAVE
    INDEX 01 00:00:00
  TRACK 05 AUDIO
    PERFORMER "Buckethead"
    TITLE "Track05"
    INDEX 00 03:07:25
FILE "05 - Track05.flac" WAVE
    INDEX 01 00:00:00
  TRACK 06 AUDIO
    PERFORMER "Buckethead"
    TITLE "Track06"
    INDEX 00 03:30:02
FILE "06 - Track06.flac" WAVE
    INDEX 01 00:00:00
  TRACK 07 AUDIO
    PERFORMER "Buckethead"
    TITLE "Track07"
    INDEX 00 08:57:16
FILE "07 - Track07.flac" WAVE
    INDEX 01 00:00:00
  TRACK 08 AUDIO
    PERFORMER "Buckethead"
    TITLE "Track08"
    INDEX 00 02:38:28
FILE "08 - Track08.flac" WAVE
    INDEX 01 00:00:00
  TRACK 09 AUDIO
    PERFORMER "Buckethead"
    TITLE "Track09"
    INDEX 00 02:48:20
FILE "09 - Track09.flac" WAVE
    INDEX 01 00:00:00
Код: Выделить всё
AUDIOCHECKER v2.0 beta (build 457) - by Dester - opdester@freemail.hu
~~~~~~~~~~~~~~~~~~~~~~~~~~~~~~~~~~
-=== DO NOT EDIT THIS FILE! ===-
Path: ...\013 (2013)
01 -=- 01 - Track01.flac -=- CDDA (85%)
02 -=- 02 - Track02.flac -=- CDDA (100%)
03 -=- 03 - Track03.flac -=- CDDA (43%)
04 -=- 04 - Track04.flac -=- CDDA (76%)
05 -=- 05 - Track05.flac -=- MPEG (89%)
06 -=- 06 - Track06.flac -=- CDDA (100%)
07 -=- 07 - Track07.flac -=- CDDA (76%)
08 -=- 08 - Track08.flac -=- MPEG (93%)
09 -=- 09 - Track09.flac -=- CDDA (100%)
Summary 66,44% CDDA
170334164
#771. Ricochet (4:42)
2. Nebula (2:13)
3. The Canals (3:45)
4. Chickephant (10:29)
5. Dry Ice Screeches (1:42)
6. Death Star Surface (3:10)
7. Tree of Lanterns (4:58)
8. Elephicken (0:51)
released 25 January 2014
More information: http://music.bucketheadpikes.com/album/the-mark-of-davis
Код: Выделить всё
AUDIOCHECKER v2.0 beta (build 457) - by Dester - opdester@freemail.hu
~~~~~~~~~~~~~~~~~~~~~~~~~~~~~~~~~~
-=== DO NOT EDIT THIS FILE! ===-
Path: ...\014 - The Mark of Davis (2014)
1 -=- 01 - Ricochet.flac -=- CDDA (100%)
2 -=- 02 - Nebula.flac -=- CDDA (100%)
3 -=- 03 - The Canals.flac -=- CDDA (100%)
4 -=- 04 - Chickephant.flac -=- CDDA (99%)
5 -=- 05 - Dry Ice Screeches.flac -=- CDDA (100%)
6 -=- 06 - Death Star Surface.flac -=- CDDA (100%)
7 -=- 07 - Tree of Lanterns.flac -=- CDDA (100%)
8 -=- 08 - Elephicken.flac -=- CDDA (100%)
Summary 99,88% CDDA
100654324
#77Label/Cat#: Not On Label (Buckethead Self-released) – 15
Country: US
Year: 13 May 2013
Genre: Rock
Style: Prog Rock, Speed Metal, Art Rock, Instrumental, Experimental
Format: CDr, Album, Limited Edition, Numbered
Tracklist
1. Untitled (1:29)
2. Untitled (2:16)
3. Untitled (1:56)
4. Untitled (2:08)
5. Untitled (3:17)
6. Untitled (1:02)
7. Untitled (5:33)
8. Untitled (2:23)
9. Untitled (1:42)
10. Untitled (1:41)
11. Untitled (1:03)
12. Untitled (5:31)
Total length: 30:01
More information: http://www.discogs.com/Bucketheadland-Pike-15/release/4670946
Код: Выделить всё
X Lossless Decoder version 20130602 (143.2)
XLD extraction logfile from 2013-06-17 16:19:11 -0400
 / Audio CD
Used drive : MATSHITA DVD-R   UJ-8A8 (revision HB14)
Media type : CD-Recordable
Ripper mode             : XLD Secure Ripper
Disable audio cache     : OK for the drive with a cache less than 1375KiB
Make use of C2 pointers : NO
Read offset correction  : 102
Max retry count         : 20
Gap status              : Analyzed, Appended
TOC of the extracted CD
     Track |   Start  |  Length  | Start sector | End sector
    ---------------------------------------------------------
        1  | 00:00:00 | 01:29:38 |         0    |     6712
        2  | 01:29:38 | 02:16:55 |      6713    |    16967
        3  | 03:46:18 | 01:56:06 |     16968    |    25673
        4  | 05:42:24 | 02:08:14 |     25674    |    35287
        5  | 07:50:38 | 03:17:38 |     35288    |    50100
        6  | 11:08:01 | 01:02:03 |     50101    |    54753
        7  | 12:10:04 | 05:33:16 |     54754    |    79744
        8  | 17:43:20 | 02:23:25 |     79745    |    90494
        9  | 20:06:45 | 01:42:48 |     90495    |    98192
       10  | 21:49:18 | 01:41:61 |     98193    |   105828
       11  | 23:31:04 | 01:03:37 |    105829    |   110590
       12  | 24:34:41 | 05:31:11 |    110591    |   135426
AccurateRip Summary
    Disc not found in AccurateRip DB.
All Tracks
    Album gain               : -6.74 dB
    Peak                     : 0.999969
    Statistics
        Read error                           : 0
        Jitter error (maybe fixed)           : 0
        Retry sector count                   : 0
        Damaged sector count                 : 0
Track 01
    Filename : /Users/elysofly/Music/XLD Rips/01 Track 01.flac
    Pre-gap length : 00:02:00
    Track gain               : -3.87 dB
    Peak                     : 0.743134
    CRC32 hash (test run)    : DE68B704
    CRC32 hash               : DE68B704
    CRC32 hash (skip zero)   : 72C675CD
    AccurateRip v1 signature : 65F8F2C0
    AccurateRip v2 signature : 6233F8BD
        ->Track not present in AccurateRip database.
    Statistics
        Read error                           : 0
        Jitter error (maybe fixed)           : 0
        Retry sector count                   : 0
        Damaged sector count                 : 0
Track 02
    Filename : /Users/elysofly/Music/XLD Rips/02 Track 02.flac
    Track gain               : -8.31 dB
    Peak                     : 0.999969
    CRC32 hash (test run)    : 80614AB0
    CRC32 hash               : 80614AB0
    CRC32 hash (skip zero)   : 04197CF0
    AccurateRip v1 signature : C0EC59AC
    AccurateRip v2 signature : AED244EF
        ->Track not present in AccurateRip database.
    Statistics
        Read error                           : 0
        Jitter error (maybe fixed)           : 0
        Retry sector count                   : 0
        Damaged sector count                 : 0
Track 03
    Filename : /Users/elysofly/Music/XLD Rips/03 Track 03.flac
    Track gain               : -4.59 dB
    Peak                     : 0.999969
    CRC32 hash (test run)    : 29A96502
    CRC32 hash               : 29A96502
    CRC32 hash (skip zero)   : A08CAE76
    AccurateRip v1 signature : C8CB5FAF
    AccurateRip v2 signature : 7C7582AA
        ->Track not present in AccurateRip database.
    Statistics
        Read error                           : 0
        Jitter error (maybe fixed)           : 0
        Retry sector count                   : 0
        Damaged sector count                 : 0
Track 04
    Filename : /Users/elysofly/Music/XLD Rips/04 Track 04.flac
    Track gain               : -6.84 dB
    Peak                     : 0.999969
    CRC32 hash (test run)    : 1E58D501
    CRC32 hash               : 1E58D501
    CRC32 hash (skip zero)   : 3DEBE8E4
    AccurateRip v1 signature : 4595155F
    AccurateRip v2 signature : 42B3335F
        ->Track not present in AccurateRip database.
    Statistics
        Read error                           : 0
        Jitter error (maybe fixed)           : 0
        Retry sector count                   : 0
        Damaged sector count                 : 0
Track 05
    Filename : /Users/elysofly/Music/XLD Rips/05 Track 05.flac
    Track gain               : -0.83 dB
    Peak                     : 0.994141
    CRC32 hash (test run)    : 918E0CE6
    CRC32 hash               : 918E0CE6
    CRC32 hash (skip zero)   : 6DBEE01C
    AccurateRip v1 signature : DB788AE9
    AccurateRip v2 signature : FBE8C2F4
        ->Track not present in AccurateRip database.
    Statistics
        Read error                           : 0
        Jitter error (maybe fixed)           : 0
        Retry sector count                   : 0
        Damaged sector count                 : 0
Track 06
    Filename : /Users/elysofly/Music/XLD Rips/06 Track 06.flac
    Track gain               : -5.56 dB
    Peak                     : 0.999969
    CRC32 hash (test run)    : 0478FAFE
    CRC32 hash               : 0478FAFE
    CRC32 hash (skip zero)   : 96801DD7
    AccurateRip v1 signature : B17A35F8
    AccurateRip v2 signature : 0DF29CDA
        ->Track not present in AccurateRip database.
    Statistics
        Read error                           : 0
        Jitter error (maybe fixed)           : 0
        Retry sector count                   : 0
        Damaged sector count                 : 0
Track 07
    Filename : /Users/elysofly/Music/XLD Rips/07 Track 07.flac
    Track gain               : -6.06 dB
    Peak                     : 0.999969
    CRC32 hash (test run)    : E9142EBF
    CRC32 hash               : E9142EBF
    CRC32 hash (skip zero)   : 2F513C3F
    AccurateRip v1 signature : E7C1CBDE
    AccurateRip v2 signature : 98412790
        ->Track not present in AccurateRip database.
    Statistics
        Read error                           : 0
        Jitter error (maybe fixed)           : 0
        Retry sector count                   : 0
        Damaged sector count                 : 0
Track 08
    Filename : /Users/elysofly/Music/XLD Rips/08 Track 08.flac
    Track gain               : -7.35 dB
    Peak                     : 0.999969
    CRC32 hash (test run)    : 2AE3CDAD
    CRC32 hash               : 2AE3CDAD
    CRC32 hash (skip zero)   : F139A82D
    AccurateRip v1 signature : 95E95EB3
    AccurateRip v2 signature : 0908027A
        ->Track not present in AccurateRip database.
    Statistics
        Read error                           : 0
        Jitter error (maybe fixed)           : 0
        Retry sector count                   : 0
        Damaged sector count                 : 0
Track 09
    Filename : /Users/elysofly/Music/XLD Rips/09 Track 09.flac
    Track gain               : -1.90 dB
    Peak                     : 0.960236
    CRC32 hash (test run)    : CBEDCEA6
    CRC32 hash               : CBEDCEA6
    CRC32 hash (skip zero)   : F461D6D8
    AccurateRip v1 signature : 9CE06D0B
    AccurateRip v2 signature : 68EE97D8
        ->Track not present in AccurateRip database.
    Statistics
        Read error                           : 0
        Jitter error (maybe fixed)           : 0
        Retry sector count                   : 0
        Damaged sector count                 : 0
Track 10
    Filename : /Users/elysofly/Music/XLD Rips/10 Track 10.flac
    Track gain               : -6.87 dB
    Peak                     : 0.999969
    CRC32 hash (test run)    : 7033155E
    CRC32 hash               : 7033155E
    CRC32 hash (skip zero)   : C92FFDDE
    AccurateRip v1 signature : 8697FBAB
    AccurateRip v2 signature : 6C205B8D
        ->Track not present in AccurateRip database.
    Statistics
        Read error                           : 0
        Jitter error (maybe fixed)           : 0
        Retry sector count                   : 0
        Damaged sector count                 : 0
Track 11
    Filename : /Users/elysofly/Music/XLD Rips/11 Track 11.flac
    Track gain               : -1.91 dB
    Peak                     : 0.526062
    CRC32 hash (test run)    : 872900F1
    CRC32 hash               : 872900F1
    CRC32 hash (skip zero)   : 59C55D07
    AccurateRip v1 signature : 57EE65B4
    AccurateRip v2 signature : E1E6243B
        ->Track not present in AccurateRip database.
    Statistics
        Read error                           : 0
        Jitter error (maybe fixed)           : 0
        Retry sector count                   : 0
        Damaged sector count                 : 0
Track 12
    Filename : /Users/elysofly/Music/XLD Rips/12 Track 12.flac
    Track gain               : -7.75 dB
    Peak                     : 0.999969
    CRC32 hash (test run)    : C119DA64
    CRC32 hash               : C119DA64
    CRC32 hash (skip zero)   : E057B5B2
    AccurateRip v1 signature : D516154E
    AccurateRip v2 signature : 647DD7A6
        ->Track not present in AccurateRip database.
    Statistics
        Read error                           : 0
        Jitter error (maybe fixed)           : 0
        Retry sector count                   : 0
        Damaged sector count                 : 0
No errors occurred
End of status report
Код: Выделить всё
REM DATE 2013
PERFORMER "Buckethead"
TITLE "015"
FILE "01 - Track 01.flac" WAVE
  TRACK 01 AUDIO
    TITLE "Track 01"
    PERFORMER "Buckethead"
    REM REPLAYGAIN_TRACK_GAIN -3.87 dB
    REM REPLAYGAIN_TRACK_PEAK 0.743134
    INDEX 01 00:00:00
FILE "02 - Track 02.flac" WAVE
  TRACK 02 AUDIO
    TITLE "Track 02"
    PERFORMER "Buckethead"
    REM REPLAYGAIN_TRACK_GAIN -8.31 dB
    REM REPLAYGAIN_TRACK_PEAK 0.999969
    INDEX 01 00:00:00
FILE "03 - Track 03.flac" WAVE
  TRACK 03 AUDIO
    TITLE "Track 03"
    PERFORMER "Buckethead"
    REM REPLAYGAIN_TRACK_GAIN -4.59 dB
    REM REPLAYGAIN_TRACK_PEAK 0.999969
    INDEX 01 00:00:00
FILE "04 - Track 04.flac" WAVE
  TRACK 04 AUDIO
    TITLE "Track 04"
    PERFORMER "Buckethead"
    REM REPLAYGAIN_TRACK_GAIN -6.84 dB
    REM REPLAYGAIN_TRACK_PEAK 0.999969
    INDEX 01 00:00:00
FILE "05 - Track 05.flac" WAVE
  TRACK 05 AUDIO
    TITLE "Track 05"
    PERFORMER "Buckethead"
    REM REPLAYGAIN_TRACK_GAIN -0.83 dB
    REM REPLAYGAIN_TRACK_PEAK 0.994141
    INDEX 01 00:00:00
FILE "06 - Track 06.flac" WAVE
  TRACK 06 AUDIO
    TITLE "Track 06"
    PERFORMER "Buckethead"
    REM REPLAYGAIN_TRACK_GAIN -5.56 dB
    REM REPLAYGAIN_TRACK_PEAK 0.999969
    INDEX 01 00:00:00
FILE "07 - Track 07.flac" WAVE
  TRACK 07 AUDIO
    TITLE "Track 07"
    PERFORMER "Buckethead"
    REM REPLAYGAIN_TRACK_GAIN -6.06 dB
    REM REPLAYGAIN_TRACK_PEAK 0.999969
    INDEX 01 00:00:00
FILE "08 - Track 08.flac" WAVE
  TRACK 08 AUDIO
    TITLE "Track 08"
    PERFORMER "Buckethead"
    REM REPLAYGAIN_TRACK_GAIN -7.35 dB
    REM REPLAYGAIN_TRACK_PEAK 0.999969
    INDEX 01 00:00:00
FILE "09 - Track 09.flac" WAVE
  TRACK 09 AUDIO
    TITLE "Track 09"
    PERFORMER "Buckethead"
    REM REPLAYGAIN_TRACK_GAIN -1.90 dB
    REM REPLAYGAIN_TRACK_PEAK 0.960236
    INDEX 01 00:00:00
FILE "10 - Track 10.flac" WAVE
  TRACK 10 AUDIO
    TITLE "Track 10"
    PERFORMER "Buckethead"
    REM REPLAYGAIN_TRACK_GAIN -6.87 dB
    REM REPLAYGAIN_TRACK_PEAK 0.999969
    INDEX 01 00:00:00
FILE "11 - Track 11.flac" WAVE
  TRACK 11 AUDIO
    TITLE "Track 11"
    PERFORMER "Buckethead"
    REM REPLAYGAIN_TRACK_GAIN -1.91 dB
    REM REPLAYGAIN_TRACK_PEAK 0.526062
    INDEX 01 00:00:00
FILE "12 - Track 12.flac" WAVE
  TRACK 12 AUDIO
    TITLE "Track 12"
    PERFORMER "Buckethead"
    REM REPLAYGAIN_TRACK_GAIN -7.75 dB
    REM REPLAYGAIN_TRACK_PEAK 0.999969
    INDEX 01 00:00:00
Код: Выделить всё
AUDIOCHECKER v2.0 beta (build 457) - by Dester - opdester@freemail.hu
~~~~~~~~~~~~~~~~~~~~~~~~~~~~~~~~~~
-=== DO NOT EDIT THIS FILE! ===-
Path: ...\015 (2013)
01 -=- 01 - Track 01.flac -=- MPEG (100%)
02 -=- 02 - Track 02.flac -=- CDDA (99%)
03 -=- 03 - Track 03.flac -=- CDDA (100%)
04 -=- 04 - Track 04.flac -=- CDDA (100%)
05 -=- 05 - Track 05.flac -=- CDDA (62%)
06 -=- 06 - Track 06.flac -=- CDDA (100%)
07 -=- 07 - Track 07.flac -=- CDDA (100%)
08 -=- 08 - Track 08.flac -=- CDDA (100%)
09 -=- 09 - Track 09.flac -=- MPEG (90%)
10 -=- 10 - Track 10.flac -=- CDDA (100%)
11 -=- 11 - Track 11.flac -=- CDDA (100%)
12 -=- 12 - Track 12.flac -=- CDDA (100%)
Summary 80,92% CDDA
86372436
#771. The Boiling Pond (4:36)
2. Conductor (3:03)
3. Ancestors (3:56)
4. Piledriver Impact (2:32)
5. Subterranean (4:03)
6. Punmul (1:08)
7. Flesh Tearing Cliffs (3:05)
8. Life of a Fly (3:04)
9. Screaming Skull (1:07)
10. Subterranean part 2 (3:13)
released 24 January 2014
More information: http://music.bucketheadpikes.com/album/the-boiling-pond
Код: Выделить всё
AUDIOCHECKER v2.0 beta (build 457) - by Dester - opdester@freemail.hu
~~~~~~~~~~~~~~~~~~~~~~~~~~~~~~~~~~
-=== DO NOT EDIT THIS FILE! ===-
Path: ...\016 - The Boiling Pond (2014)
01 -=- 01 - The Boiling Pond.flac -=- CDDA (100%)
02 -=- 02 - Conductor.flac -=- CDDA (99%)
03 -=- 03 - Ancestors.flac -=- CDDA (100%)
04 -=- 04 - Piledriver Impact.flac -=- CDDA (99%)
05 -=- 05 - Subterranean.flac -=- CDDA (100%)
06 -=- 06 - Punmul.flac -=- CDDA (100%)
07 -=- 07 - Flesh Tearing Cliffs.flac -=- CDDA (100%)
08 -=- 08 - Life of a Fly.flac -=- CDDA (99%)
09 -=- 09 - Screaming Skull.flac -=- CDDA (100%)
10 -=- 10 - Subterranean part 2.flac -=- CDDA (100%)
Summary 99,70% CDDA
26545316
#771. The Spirit Winds (25:04)
2. Petal (1:41)
3. Frog Charmer (1:33)
4. The Pier (0:55)
5. Cab Window (1:38)
released 24 January 2014
More information: http://music.bucketheadpikes.com/album/the-spirit-winds
Код: Выделить всё
AUDIOCHECKER v2.0 beta (build 457) - by Dester - opdester@freemail.hu
~~~~~~~~~~~~~~~~~~~~~~~~~~~~~~~~~~
-=== DO NOT EDIT THIS FILE! ===-
Path: ...\017 - The Spirit Winds (2014)
1 -=- 01 - The Spirit Winds.flac -=- CDDA (100%)
2 -=- 02 - Petal.flac -=- CDDA (100%)
3 -=- 03 - Frog Charmer.flac -=- CDDA (100%)
4 -=- 04 - The Pier.flac -=- CDDA (100%)
5 -=- 05 - Cab Window.flac -=- CDDA (100%)
Summary 100,00% CDDA
5595668
#77Label/Cat#: Not On Label (Buckethead Self-released) – 18
Country: US
Year: 29 Jul 2013
Genre: Rock
Style: Instrumental, Experimental
Format: CDr, Album, Limited Edition, Numbered
Tracklist
1. Untitled (6:43)
2. Untitled (1:07)
3. Untitled (2:50)
4. Untitled (5:12)
5. Untitled (2:16)
6. Untitled (2:20)
7. Untitled (0:59)
8. Untitled (12:01)
Total length: 33:28
More information: http://www.discogs.com/Bucketheadland-Pike-18/release/4821459
Код: Выделить всё
Exact Audio Copy V1.0 beta 3 from 29. August 2011
EAC extraction logfile from 23. August 2013, 2:47
018 / Buckethead
Used drive  : HP      DVD Writer 1260t   Adapter: 2  ID: 0
Read mode               : Secure
Utilize accurate stream : Yes
Defeat audio cache      : Yes
Make use of C2 pointers : No
Read offset correction                      : 6
Overread into Lead-In and Lead-Out          : No
Fill up missing offset samples with silence : Yes
Delete leading and trailing silent blocks   : No
Null samples used in CRC calculations       : Yes
Used interface                              : Native Win32 interface for Win NT & 2000
Gap handling                                : Appended to previous track
Used output format              : User Defined Encoder
Selected bitrate                : 1024 kBit/s
Quality                         : High
Add ID3 tag                     : No
Command line compressor         : C:\Program Files (x86)\FLAC\flac.exe
Additional command line options : -8 -V -T "ARTIST=%artist%" -T "TITLE=%title%" -T "ALBUM=%albumtitle%" -T "DATE=%year%" -T "TRACKNUMBER=%tracknr%" -T "GENRE=%genre%" -T "PERFORMER=%albuminterpret%" -T "COMPOSER=%composer%" %haslyrics%--tag-from-file=LYRICS="%lyricsfile%"%haslyrics% -T "ALBUMARTIST=%albumartist%" -T "DISCNUMBER=%cdnumber%" -T "TOTALDISCS=%totalcds%" -T "TOTALTRACKS=%numtracks%" -T "COMMENT=%comment%" %source% -o %dest%
TOC of the extracted CD
     Track |   Start  |  Length  | Start sector | End sector
    ---------------------------------------------------------
        1  |  0:00.00 |  6:42.40 |         0    |    30189
        2  |  6:42.40 |  1:07.31 |     30190    |    35245
        3  |  7:49.71 |  2:49.71 |     35246    |    47991
        4  | 10:39.67 |  5:11.49 |     47992    |    71365
        5  | 15:51.41 |  2:15.55 |     71366    |    81545
        6  | 18:07.21 |  2:20.20 |     81546    |    92065
        7  | 20:27.41 |  0:58.68 |     92066    |    96483
        8  | 21:26.34 | 12:00.69 |     96484    |   150552
Track  1
     Filename K:\Buckethead - 018 LE (2013) FLAC\01 - Buckethead - Track01.wav
     Pre-gap length  0:00:02.00
     Peak level 99.4 %
     Extraction speed 4.3 X
     Track quality 100.0 %
     Test CRC 1D45F5C1
     Copy CRC 1D45F5C1
     Track not present in AccurateRip database
     Copy OK
Track  2
     Filename K:\Buckethead - 018 LE (2013) FLAC\02 - Buckethead - Track02.wav
     Peak level 100.0 %
     Extraction speed 3.1 X
     Track quality 100.0 %
     Test CRC 0826F6D1
     Copy CRC 0826F6D1
     Track not present in AccurateRip database
     Copy OK
Track  3
     Filename K:\Buckethead - 018 LE (2013) FLAC\03 - Buckethead - Track03.wav
     Peak level 100.0 %
     Extraction speed 3.3 X
     Track quality 99.9 %
     Test CRC 0B40630A
     Copy CRC 0B40630A
     Track not present in AccurateRip database
     Copy OK
Track  4
     Filename K:\Buckethead - 018 LE (2013) FLAC\04 - Buckethead - Track04.wav
     Peak level 100.0 %
     Extraction speed 5.1 X
     Track quality 100.0 %
     Test CRC DBA73EB8
     Copy CRC DBA73EB8
     Track not present in AccurateRip database
     Copy OK
Track  5
     Filename K:\Buckethead - 018 LE (2013) FLAC\05 - Buckethead - Track05.wav
     Peak level 100.0 %
     Extraction speed 4.6 X
     Track quality 100.0 %
     Test CRC E4444958
     Copy CRC E4444958
     Track not present in AccurateRip database
     Copy OK
Track  6
     Filename K:\Buckethead - 018 LE (2013) FLAC\06 - Buckethead - Track06.wav
     Peak level 100.0 %
     Extraction speed 4.7 X
     Track quality 100.0 %
     Test CRC 65F9D985
     Copy CRC 65F9D985
     Track not present in AccurateRip database
     Copy OK
Track  7
     Filename K:\Buckethead - 018 LE (2013) FLAC\07 - Buckethead - Track07.wav
     Peak level 100.0 %
     Extraction speed 3.8 X
     Track quality 100.0 %
     Test CRC B076E75E
     Copy CRC B076E75E
     Track not present in AccurateRip database
     Copy OK
Track  8
     Filename K:\Buckethead - 018 LE (2013) FLAC\08 - Buckethead - Track08.wav
     Peak level 100.0 %
     Extraction speed 6.4 X
     Track quality 100.0 %
     Test CRC 8870DDC7
     Copy CRC 8870DDC7
     Track not present in AccurateRip database
     Copy OK
None of the tracks are present in the AccurateRip database
No errors occurred
End of status report
==== Log checksum 83A4C7308BC3491494339660CD5FF1EDD08D67C0B25BDAE5698669FB0AE06B54 ====
Код: Выделить всё
REM GENRE Instrumental Rock
REM DATE 2013
PERFORMER "Buckethead"
TITLE "018"
FILE "01 - Track01.flac" WAVE
  TRACK 01 AUDIO
    TITLE "Track01"
    PERFORMER "Buckethead"
    INDEX 01 00:00:00
FILE "02 - Track02.flac" WAVE
  TRACK 02 AUDIO
    TITLE "Track02"
    PERFORMER "Buckethead"
    INDEX 01 00:00:00
FILE "03 - Track03.flac" WAVE
  TRACK 03 AUDIO
    TITLE "Track03"
    PERFORMER "Buckethead"
    INDEX 01 00:00:00
FILE "04 - Track04.flac" WAVE
  TRACK 04 AUDIO
    TITLE "Track04"
    PERFORMER "Buckethead"
    INDEX 01 00:00:00
FILE "05 - Track05.flac" WAVE
  TRACK 05 AUDIO
    TITLE "Track05"
    PERFORMER "Buckethead"
    INDEX 01 00:00:00
FILE "06 - Track06.flac" WAVE
  TRACK 06 AUDIO
    TITLE "Track06"
    PERFORMER "Buckethead"
    INDEX 01 00:00:00
FILE "07 - Track07.flac" WAVE
  TRACK 07 AUDIO
    TITLE "Track07"
    PERFORMER "Buckethead"
    INDEX 01 00:00:00
FILE "08 - Track08.flac" WAVE
  TRACK 08 AUDIO
    TITLE "Track08"
    PERFORMER "Buckethead"
    INDEX 01 00:00:00
Код: Выделить всё
AUDIOCHECKER v2.0 beta (build 457) - by Dester - opdester@freemail.hu
~~~~~~~~~~~~~~~~~~~~~~~~~~~~~~~~~~
-=== DO NOT EDIT THIS FILE! ===-
Path: ...\018 (2013)
01 -=- 01 - Track01.flac -=- CDDA (100%)
02 -=- 02 - Track02.flac -=- CDDA (100%)
03 -=- 03 - Track03.flac -=- CDDA (100%)
04 -=- 04 - Track04.flac -=- CDDA (100%)
05 -=- 05 - Track05.flac -=- CDDA (100%)
06 -=- 06 - Track06.flac -=- CDDA (100%)
07 -=- 07 - Track07.flac -=- CDDA (99%)
08 -=- 08 - Track08.flac -=- CDDA (100%)
Summary 99,88% CDDA
124027940
#771. Teeter Slaughter part 1 (1:54)
2. Teeter Slaughter part 2 (2:52)
3. Teeter Slaughter part 3 (3:25)
4. Teeter Slaughter part 4 (2:46)
5. Teeter Slaughter part 5 (2:37)
6. Teeter Slaughter part 6 (4:45)
7. Teeter Slaughter part 7 (3:48)
8. Teeter Slaughter part 8 (2:20)
9. Teeter Slaughter part 9 (3:10)
10. Teeter Slaughter part 10 (2:12)
11. Teeter Slaughter part 11 (1:49)
released 24 January 2014
More information: http://music.bucketheadpikes.com/album/teeter-slaughter
Код: Выделить всё
AUDIOCHECKER v2.0 beta (build 457) - by Dester - opdester@freemail.hu
~~~~~~~~~~~~~~~~~~~~~~~~~~~~~~~~~~
-=== DO NOT EDIT THIS FILE! ===-
Path: ...\019 - Teeter Slaughter (2014)
001 -=- 01 - Teeter Slaughter part 1.flac -=- CDDA (100%)
002 -=- 02 - Teeter Slaughter part 2.flac -=- CDDA (100%)
003 -=- 03 - Teeter Slaughter part 3.flac -=- CDDA (100%)
004 -=- 04 - Teeter Slaughter part 4.flac -=- CDDA (100%)
005 -=- 05 - Teeter Slaughter part 5.flac -=- CDDA (99%)
006 -=- 06 - Teeter Slaughter part 6.flac -=- CDDA (100%)
007 -=- 07 - Teeter Slaughter part 7.flac -=- CDDA (100%)
008 -=- 08 - Teeter Slaughter part 8.flac -=- CDDA (100%)
009 -=- 09 - Teeter Slaughter part 9.flac -=- CDDA (99%)
010 -=- 10 - Teeter Slaughter part 10.flac -=- CDDA (100%)
011 -=- 11 - Teeter Slaughter part 11.flac -=- CDDA (100%)
Summary 99,82% CDDA
20675444
#771. Thaw (8:07)
2. Melting Season (2:26)
3. Room of Frozen Combs (3:11)
4. Kept in Batteries (2:46)
5. Dry (3:04)
6. Fragmented (6:53)
7. Dust Filter (2:14)
8. In the Bin (1:54)
9. Fountains in a Wire (1:30)
released 17 July 2014
More information: http://music.bucketheadpikes.com/album/thaw
Код: Выделить всё
AUDIOCHECKER v2.0 beta (build 457) - by Dester - opdester@freemail.hu
~~~~~~~~~~~~~~~~~~~~~~~~~~~~~~~~~~
-=== DO NOT EDIT THIS FILE! ===-
Path: ...\020 - Thaw (2014)
001 -=- 01 - Thaw.flac -=- CDDA (99%)
002 -=- 02 - Melting Season.flac -=- CDDA (100%)
003 -=- 03 - Room of Frozen Combs.flac -=- CDDA (100%)
004 -=- 04 - Kept in Batteries.flac -=- CDDA (100%)
005 -=- 05 - Dry.flac -=- CDDA (100%)
006 -=- 06 - Fragmented.flac -=- CDDA (100%)
007 -=- 07 - Dust Filter.flac -=- CDDA (100%)
008 -=- 08 - In the Bin.flac -=- CDDA (100%)
009 -=- 09 - Fountains in a Wire.flac -=- CDDA (100%)
Summary 99,89% CDDA
230364772
#771. Spiral Trackway (4:34)
2. Center Platform (4:35)
3. Aluminum Hub (3:42)
4. Fiber Optic Gateway (3:37)
5. Solar Satellite (1:03)
6. Symphony of the Seed (4:14)
7. Micro and Macro World (4:06)
8. Hyacinth (5:04)
released 14 July 2014
More information: http://music.bucketheadpikes.com/album/spiral-trackway
Код: Выделить всё
AUDIOCHECKER v2.0 beta (build 457) - by Dester - opdester@freemail.hu
~~~~~~~~~~~~~~~~~~~~~~~~~~~~~~~~~~
-=== DO NOT EDIT THIS FILE! ===-
Path: ...\021 - Spiral Trackway (2014)
1 -=- 01 - Spiral Trackway.flac -=- CDDA (100%)
2 -=- 02 - Center Platform.flac -=- CDDA (99%)
3 -=- 03 - Aluminum Hub.flac -=- CDDA (100%)
4 -=- 04 - Fiber Optic Gateway.flac -=- CDDA (100%)
5 -=- 05 - Solar Satellite.flac -=- CDDA (100%)
6 -=- 06 - Symphony of the Seed.flac -=- CDDA (100%)
7 -=- 07 - Micro and Macro World.flac -=- CDDA (100%)
8 -=- 08 - Hyacinth.flac -=- CDDA (100%)
Summary 99,88% CDDA
35268964
#771. Monorail Stop (4:16)
2. Sphere Facade (4:24)
3. Waterproof Membrane (3:30)
4. Reflection Surface (3:00)
5. Viewing Deck (4:22)
6. Spokes in Space (3:46)
7. Bantam Pavilions (4:43)
8. Game Grid (3:33)
released 15 July 2014
More information: http://music.bucketheadpikes.com/album/sphere-facade
Код: Выделить всё
AUDIOCHECKER v2.0 beta (build 457) - by Dester - opdester@freemail.hu
~~~~~~~~~~~~~~~~~~~~~~~~~~~~~~~~~~
-=== DO NOT EDIT THIS FILE! ===-
Path: ...\022 - Sphere Facade (2014)
001 -=- 01 - Monorail Stop.flac -=- CDDA (100%)
002 -=- 02 - Sphere Facade.flac -=- CDDA (100%)
003 -=- 03 - Waterproof Membrane.flac -=- CDDA (100%)
004 -=- 04 - Reflection Surface.flac -=- CDDA (100%)
005 -=- 05 - Viewing Deck.flac -=- CDDA (100%)
006 -=- 06 - Spokes in Space.flac -=- CDDA (100%)
007 -=- 07 - Bantam Pavilions.flac -=- CDDA (100%)
008 -=- 08 - Game Grid.flac -=- CDDA (100%)
Summary 100,00% CDDA
214508708
#771. Pyramids Rising (3:17)
2. Between Sea and Sky (3:00)
3. Land Drawings (3:45)
4. Launch Pad (4:04)
5. Telescape 1 (10:28)
6. Telescape 2 (7:42)
released 16 August 2013
More information: http://music.bucketheadpikes.com/album/telescape
Код: Выделить всё
AUDIOCHECKER v2.0 beta (build 457) - by Dester - opdester@freemail.hu
~~~~~~~~~~~~~~~~~~~~~~~~~~~~~~~~~~
-=== DO NOT EDIT THIS FILE! ===-
Path: ...\023 - Telescape (2013)
001 -=- 01 - Pyramids Rising.flac -=- CDDA (100%)
002 -=- 02 - Between Sea and Sky.flac -=- CDDA (100%)
003 -=- 03 - Land Drawings.flac -=- CDDA (100%)
004 -=- 04 - Launch Pad.flac -=- CDDA (100%)
005 -=- 05 - Telescape 1.flac -=- CDDA (100%)
006 -=- 06 - Telescape 2.flac -=- CDDA (100%)
Summary 100,00% CDDA
239086820
#771. Four Ton Chandelier (2:30)
2. Scowl Owl (3:57)
3. Previous Plate (5:05)
4. Chip of Red (2:46)
5. Pine Sap (1:59)
6. Smudge Mad (3:43)
7. Zebra Stripe (3:59)
8. Slug Cartilage (2:35)
9. I. Wasnail (3:53)
released 04 September 2013
More information: http://music.bucketheadpikes.com/album/slug-cartilage
Код: Выделить всё
AUDIOCHECKER v2.0 beta (build 457) - by Dester - opdester@freemail.hu
~~~~~~~~~~~~~~~~~~~~~~~~~~~~~~~~~~
-=== DO NOT EDIT THIS FILE! ===-
Path: ...\024 - Slug Cartilage (2013)
001 -=- 01 - Four Ton Chandelier.flac -=- CDDA (100%)
002 -=- 02 - Scowl Owl.flac -=- CDDA (100%)
003 -=- 03 - Previous Plate.flac -=- CDDA (99%)
004 -=- 04 - Chip of Red.flac -=- CDDA (100%)
005 -=- 05 - Pine Sap.flac -=- CDDA (100%)
006 -=- 06 - Smudge Mad.flac -=- CDDA (100%)
007 -=- 07 - Zebra Stripe.flac -=- CDDA (100%)
008 -=- 08 - Slug Cartilage.flac -=- CDDA (100%)
009 -=- 09 - I. Wasnail.flac -=- CDDA (100%)
Summary 99,89% CDDA
93087812
#771. Pancake Heater (3:24)
2. Spires of Space Mountain (3:29)
3. Crumbled or Pelleted (2:25)
4. Topspin (3:27)
5. Trough Feeder (3:34)
6. Omni Mover Assistance (3:25)
7. Sprinkled (2:58)
8. Beak to Scoop (3:29)
9. Storing Feed (5:16)
released 05 September 2013
More information: http://music.bucketheadpikes.com/album/pancake-heater
Код: Выделить всё
AUDIOCHECKER v2.0 beta (build 457) - by Dester - opdester@freemail.hu
~~~~~~~~~~~~~~~~~~~~~~~~~~~~~~~~~~
-=== DO NOT EDIT THIS FILE! ===-
Path: ...\025 - Pancake Heater (2013)
001 -=- 01 - Pancake Heater.flac -=- CDDA (100%)
002 -=- 02 - Spires of Space Mountain.flac -=- CDDA (100%)
003 -=- 03 - Crumbled or Pelleted.flac -=- CDDA (100%)
004 -=- 04 - Topspin.flac -=- CDDA (100%)
005 -=- 05 - Trough Feeder.flac -=- CDDA (99%)
006 -=- 06 - Omni Mover Assistance.flac -=- CDDA (99%)
007 -=- 07 - Sprinkled.flac -=- CDDA (100%)
008 -=- 08 - Beak to Scoop.flac -=- CDDA (100%)
009 -=- 09 - Storing Feed.flac -=- CDDA (100%)
Summary 99,78% CDDA
121217124
#771. Worms for the Garden (18:36)
2. Ridge Roll (3:06)
3. Owl on the Road (2:01)
4. Learned the Land (3:35)
5. Molt (2:52)
released 13 September 2013
More information: http://music.bucketheadpikes.com/album/worms-for-the-garden
Код: Выделить всё
AUDIOCHECKER v2.0 beta (build 457) - by Dester - opdester@freemail.hu
~~~~~~~~~~~~~~~~~~~~~~~~~~~~~~~~~~
-=== DO NOT EDIT THIS FILE! ===-
Path: ...\026 - Worms for the Garden (2013)
1 -=- 01 - Worms for the Garden.flac -=- CDDA (100%)
2 -=- 02 - Ridge Roll.flac -=- CDDA (100%)
3 -=- 03 - Owl on the Road.flac -=- CDDA (100%)
4 -=- 04 - Learned the Land.flac -=- CDDA (100%)
5 -=- 05 - Molt.flac -=- CDDA (100%)
Summary 100,00% CDDA
210500804
#771. McDougal Street (7:39)
2. Halls of Dimension Part One - Hall 1 (3:38)
3. Hall 2 (3:19)
4. Hall 3 (3:23)
5. Hall 4 (2:08)
6. Hall 5 (3:43)
7. Part Two - Falling Through the Vacuum (5:51)
8. Suns Set (2:27)
More information: http://music.bucketheadpikes.com/album/halls-of-dimension
released 13 September 2013
Код: Выделить всё
AUDIOCHECKER v2.0 beta (build 457) - by Dester - opdester@freemail.hu
~~~~~~~~~~~~~~~~~~~~~~~~~~~~~~~~~~
-=== DO NOT EDIT THIS FILE! ===-
Path: ...\027 - Halls of Dimension (2013)
001 -=- 01 - McDougal Street.flac -=- CDDA (100%)
002 -=- 02 - Halls of Dimension Part One - Hall 1.flac -=- CDDA (100%)
003 -=- 03 - Hall 2.flac -=- CDDA (100%)
004 -=- 04 - Hall 3.flac -=- CDDA (100%)
005 -=- 05 - Hall 4.flac -=- CDDA (99%)
006 -=- 06 - Hall 5.flac -=- CDDA (100%)
007 -=- 07 - Part Two - Falling Through the Vacuum.flac -=- CDDA (100%)
008 -=- 08 - Suns Set.flac -=- CDDA (100%)
Summary 99,88% CDDA
150769028
#771. Feathers (2:49)
2. Claw Station (2:14)
3. Mill (5:13)
4. Faded (6:33)
5. Cactus Spines (4:47)
6. Lake Whisperer (3:36)
7. Rooster Row (6:32)
released 04 October 2013
More information: http://music.bucketheadpikes.com/album/feathers
Код: Выделить всё
AUDIOCHECKER v2.0 beta (build 457) - by Dester - opdester@freemail.hu
~~~~~~~~~~~~~~~~~~~~~~~~~~~~~~~~~~
-=== DO NOT EDIT THIS FILE! ===-
Path: ...\028 - Feathers (2013)
001 -=- 01 - Feathers.flac -=- CDDA (99%)
002 -=- 02 - Claw Station.flac -=- CDDA (100%)
003 -=- 03 - Mill.flac -=- CDDA (100%)
004 -=- 04 - Faded.flac -=- CDDA (100%)
005 -=- 05 - Cactus Spines.flac -=- CDDA (43%)
006 -=- 06 - Lake Whisperer.flac -=- CDDA (100%)
007 -=- 07 - Rooster Row.flac -=- CDDA (100%)
Summary 91,71% CDDA
80084756
#771. Splatters 1 (10:28)
2. Splatters 2 (3:41)
3. Splatters 3 (4:06)
4. Splatters 4 (12:49)
released 26 September 2013
More information: http://music.bucketheadpikes.com/album/splatters
Код: Выделить всё
AUDIOCHECKER v2.0 beta (build 457) - by Dester - opdester@freemail.hu
~~~~~~~~~~~~~~~~~~~~~~~~~~~~~~~~~~
-=== DO NOT EDIT THIS FILE! ===-
Path: ...\029 - Splatters (2013)
001 -=- 01 - Splatters 1.flac -=- CDDA (100%)
002 -=- 02 - Splatters 2.flac -=- CDDA (100%)
003 -=- 03 - Splatters 3.flac -=- CDDA (99%)
004 -=- 04 - Splatters 4.flac -=- CDDA (100%)
Summary 99,75% CDDA
133442516
#771. Melted Glasses (2:45)
2. Purse of Holes (3:29)
3. Cobwebs in the Calf (3:46)
4. Faded Fingernail Polish (3:24)
5. Hat That Smells Like an Old Bookstore (2:29)
6. Where Rings Were (3:34)
7. Piles of Parts (3:20)
8. Shoes Without Socks (3:09)
9. Mannequin Cemetery (4:37)
More information: http://music.bucketheadpikes.com/album/mannequin-cemetery
Код: Выделить всё
AUDIOCHECKER v2.0 beta (build 457) - by Dester - opdester@freemail.hu
~~~~~~~~~~~~~~~~~~~~~~~~~~~~~~~~~~
-=== DO NOT EDIT THIS FILE! ===-
Path: ...\030 - Mannequin Cemetery (2013)
1 -=- 01 - Melted Glasses.flac -=- CDDA (99%)
2 -=- 02 - Purse of Holes.flac -=- CDDA (99%)
3 -=- 03 - Cobwebs in the Calf.flac -=- CDDA (100%)
4 -=- 04 - Faded Fingernail Polish.flac -=- CDDA (100%)
5 -=- 05 - Hat That Smells Like an Old Bookstore.flac -=- CDDA (100%)
6 -=- 06 - Where Rings Were.flac -=- CDDA (100%)
7 -=- 07 - Piles of Parts.flac -=- CDDA (100%)
8 -=- 08 - Shoes Without Socks.flac -=- CDDA (99%)
9 -=- 09 - Mannequin Cemetery.flac -=- CDDA (100%)
Summary 99,67% CDDA
170900148
#771. Pearson's Square (5:51)
2. Eagle's Nest (6:30)
3. Eagle's Flight (11:43)
4. Hearts Delight (9:40)
released 24 October 2013
More information: http://music.bucketheadpikes.com/album/pearsons-square
Код: Выделить всё
AUDIOCHECKER v2.0 beta (build 457) - by Dester - opdester@freemail.hu
~~~~~~~~~~~~~~~~~~~~~~~~~~~~~~~~~~
-=== DO NOT EDIT THIS FILE! ===-
Path: ...\031 - Pearson's Square (2013)
1 -=- 01 - Pearson's Square.flac -=- CDDA (100%)
2 -=- 02 - Eagle's Nest.flac -=- CDDA (100%)
3 -=- 03 - Eagle's Flight.flac -=- CDDA (100%)
4 -=- 04 - Hearts Delight.flac -=- CDDA (99%)
Summary 99,75% CDDA
129190420
#771. Mountain Cabin (6:29)
2. The Flooding of Pain (10:12)
3. Rise of the Blue Lotus (12:55)
released 09 November 2013
More information: http://music.bucketheadpikes.com/album/rise-of-the-blue-lotus
Код: Выделить всё
AUDIOCHECKER v2.0 beta (build 457) - by Dester - opdester@freemail.hu
~~~~~~~~~~~~~~~~~~~~~~~~~~~~~~~~~~
-=== DO NOT EDIT THIS FILE! ===-
Path: ...\032 - Rise Of The Blue Lotus (2013)
001 -=- 01 - Mountain Cabin.flac -=- CDDA (100%)
002 -=- 02 - The Flooding of Pain.flac -=- CDDA (100%)
003 -=- 03 - Rise of the Blue Lotus.flac -=- CDDA (100%)
Summary 100,00% CDDA
62954340
#771. Pumpkin Pikes 1 (1:52)
2. Pumpkin Pikes 2 (2:39)
3. Pumpkin Pikes 3 (0:41)
4. Pumpkin Pikes 4 (2:04)
5. Pumpkin Pikes 5 (1:12)
6. Pumpkin Pikes 6 (5:41)
7. Pumpkin Pikes 7 (0:50)
8. Pumpkin Pikes 8 (0:53)
9. Pumpkin Pikes 9 (0:31)
10. Pumpkin Pikes 10 (0:27)
11. Pumpkin Pikes 11 (5:12)
12. Pumpkin Pikes 12 (0:14)
13. Pumpkin Pikes 13 (2:04)
14. Pumpkin Pikes 14 (0:21)
15. Pumpkin Pikes 15 (0:31)
16. Pumpkin Pikes 16 (0:59)
17. Pumpkin Pikes 17 (1:26)
18. Pumpkin Pikes 18 (3:45)
released 29 October 2013
More information: http://music.bucketheadpikes.com/album/pumpkin
Код: Выделить всё
AUDIOCHECKER v2.0 beta (build 457) - by Dester - opdester@freemail.hu
~~~~~~~~~~~~~~~~~~~~~~~~~~~~~~~~~~
-=== DO NOT EDIT THIS FILE! ===-
Path: ...\033 - Pumpkin (2013)
001 -=- 01 - Pumpkin Pikes 1.flac -=- MPEG (89%)
002 -=- 02 - Pumpkin Pikes 2.flac -=- CDDA (100%)
003 -=- 03 - Pumpkin Pikes 3.flac -=- CDDA (100%)
004 -=- 04 - Pumpkin Pikes 4.flac -=- CDDA (100%)
005 -=- 05 - Pumpkin Pikes 5.flac -=- CDDA (100%)
006 -=- 06 - Pumpkin Pikes 6.flac -=- CDDA (99%)
007 -=- 07 - Pumpkin Pikes 7.flac -=- CDDA (100%)
008 -=- 08 - Pumpkin Pikes 8.flac -=- CDDA (100%)
009 -=- 09 - Pumpkin Pikes 9.flac -=- CDDA (100%)
010 -=- 10 - Pumpkin Pikes 10.flac -=- CDDA (100%)
011 -=- 11 - Pumpkin Pikes 11.flac -=- CDDA (100%)
012 -=- 12 - Pumpkin Pikes 12.flac -=- CDDA (100%)
013 -=- 13 - Pumpkin Pikes 13.flac -=- CDDA (43%)
014 -=- 14 - Pumpkin Pikes 14.flac -=- CDDA (100%)
015 -=- 15 - Pumpkin Pikes 15.flac -=- CDDA (100%)
016 -=- 16 - Pumpkin Pikes 16.flac -=- CDDA (99%)
017 -=- 17 - Pumpkin Pikes 17.flac -=- CDDA (100%)
018 -=- 18 - Pumpkin Pikes 18.flac -=- CDDA (99%)
Summary 91,72% CDDA
26363844
#771. Pumpkin Pikes 19 (6:00)
2. Pumpkin Pikes 20 (5:03)
3. Pumpkin Pikes 21 (3:48)
4. Pumpkin Pikes 22 (2:53)
5. Pumpkin Pikes 23 (4:57)
6. Pumpkin Pikes 24 (2:59)
7. Pumpkin Pikes 25 (2:37)
8. Pumpkin Pikes 26 (2:02)
9. Pumpkin Pikes 27 (2:35)
released 27 November 2013
More information: http://music.bucketheadpikes.com/album/pikes
Код: Выделить всё
AUDIOCHECKER v2.0 beta (build 457) - by Dester - opdester@freemail.hu
~~~~~~~~~~~~~~~~~~~~~~~~~~~~~~~~~~
-=== DO NOT EDIT THIS FILE! ===-
Path: ...\034 - Pikes (2013)
001 -=- 01 - Pumpkin Pikes 19.flac -=- CDDA (100%)
002 -=- 02 - Pumpkin Pikes 20.flac -=- CDDA (100%)
003 -=- 03 - Pumpkin Pikes 21.flac -=- CDDA (100%)
004 -=- 04 - Pumpkin Pikes 22.flac -=- CDDA (100%)
005 -=- 05 - Pumpkin Pikes 23.flac -=- CDDA (100%)
006 -=- 06 - Pumpkin Pikes 24.flac -=- CDDA (100%)
007 -=- 07 - Pumpkin Pikes 25.flac -=- CDDA (100%)
008 -=- 08 - Pumpkin Pikes 26.flac -=- CDDA (100%)
009 -=- 09 - Pumpkin Pikes 27.flac -=- CDDA (100%)
Summary 100,00% CDDA
13216372
#771. Thank you Ohlinger's (9:19)
2. Unopened Boxes (5:09)
3. Way in the Back (2:39)
4. Manila Envelopes (2:17)
5. Alphabetical Order (3:00)
6. Window Clip (3:35)
7. Shoe Lock (2:30)
8. Telling Number (3:40)
released 02 November 2013
More information: http://music.bucketheadpikes.com/album/thank-you-ohlingers
Код: Выделить всё
AUDIOCHECKER v2.0 beta (build 457) - by Dester - opdester@freemail.hu
~~~~~~~~~~~~~~~~~~~~~~~~~~~~~~~~~~
-=== DO NOT EDIT THIS FILE! ===-
Path: ...\035 - Thank You Ohlinger's (2013)
1 -=- 01 - Thank you Ohlinger's.flac -=- CDDA (100%)
2 -=- 02 - Unopened Boxes.flac -=- CDDA (100%)
3 -=- 03 - Way in the Back.flac -=- CDDA (100%)
4 -=- 04 - Manila Envelopes.flac -=- CDDA (100%)
5 -=- 05 - Alphabetical Order.flac -=- CDDA (100%)
6 -=- 06 - Window Clip.flac -=- CDDA (100%)
7 -=- 07 - Shoe Lock.flac -=- CDDA (100%)
8 -=- 08 - Telling Number.flac -=- CDDA (100%)
Summary 100,00% CDDA
227740164
#771. The Pit part 1 (4:29)
2. The Pit part 2 (2:13)
3. The Pit part 3 (2:21)
4. The Pit part 4 (3:34)
5. The Pit part 5 (3:22)
6. The Pit part 6 (4:24)
7. The Pendulum (8:08)
released 02 November 2013
More information: http://music.bucketheadpikes.com/album/the-pit
Код: Выделить всё
AUDIOCHECKER v2.0 beta (build 457) - by Dester - opdester@freemail.hu
~~~~~~~~~~~~~~~~~~~~~~~~~~~~~~~~~~
-=== DO NOT EDIT THIS FILE! ===-
Path: ...\036 - The Pit (2013)
01 -=- 01 - The Pit part 1.flac -=- CDDA (100%)
02 -=- 02 - The Pit part 2.flac -=- CDDA (100%)
03 -=- 03 - The Pit part 3.flac -=- CDDA (99%)
04 -=- 04 - The Pit part 4.flac -=- CDDA (100%)
05 -=- 05 - The Pit part 5.flac -=- CDDA (100%)
06 -=- 06 - The Pit part 6.flac -=- CDDA (54%)
07 -=- 07 - The Pendulum.flac -=- CDDA (43%)
Summary 85,14% CDDA
34537876
#771. Low Rolling Hills (7:31)
2. Lobster Hands (2:41)
3. One Foot In Front of the Other (2:47)
4. Sideways Jaw Trap (4:19)
5. Mosquito on Stilts (2:41)
6. Trading Post (6:01)
7. Cyborg Parking (1:26)
8. Hollowed Out (4:42)
released 12 November 2013
More information: http://music.bucketheadpikes.com/album/hollowed-out
Код: Выделить всё
AUDIOCHECKER v2.0 beta (build 457) - by Dester - opdester@freemail.hu
~~~~~~~~~~~~~~~~~~~~~~~~~~~~~~~~~~
-=== DO NOT EDIT THIS FILE! ===-
Path: ...\037 - Hollowed Out (2013)
001 -=- 01 - Low Rolling Hills.flac -=- CDDA (100%)
002 -=- 02 - Lobster Hands.flac -=- CDDA (100%)
003 -=- 03 - One Foot In Front of the Other.flac -=- CDDA (100%)
004 -=- 04 - Sideways Jaw Trap.flac -=- CDDA (100%)
005 -=- 05 - Mosquito on Stilts.flac -=- CDDA (100%)
006 -=- 06 - Trading Post.flac -=- CDDA (100%)
007 -=- 07 - Cyborg Parking.flac -=- CDDA (100%)
008 -=- 08 - Hollowed Out.flac -=- CDDA (100%)
Summary 100,00% CDDA
188125012
#771. Gold Dragon part 1 (3:50)
2. Gold Dragon part 2 (3:38)
3. Gold Dragon part 3 (3:27)
4. Gold Dragon part 4 (4:39)
5. Gold Dragon part 5 (3:42)
6. Gold Dragon part 6 (5:18)
7. It Smells Like Frogs (6:38)
released 22 November 2013
More information: http://music.bucketheadpikes.com/album/it-smells-like-frogs
Код: Выделить всё
AUDIOCHECKER v2.0 beta (build 457) - by Dester - opdester@freemail.hu
~~~~~~~~~~~~~~~~~~~~~~~~~~~~~~~~~~
-=== DO NOT EDIT THIS FILE! ===-
Path: ...\038 - It Smells Like Frogs (2013)
001 -=- 01 - Gold Dragon part 1.flac -=- CDDA (100%)
002 -=- 02 - Gold Dragon part 2.flac -=- CDDA (100%)
003 -=- 03 - Gold Dragon part 3.flac -=- CDDA (99%)
004 -=- 04 - Gold Dragon part 4.flac -=- CDDA (100%)
005 -=- 05 - Gold Dragon part 5.flac -=- CDDA (100%)
006 -=- 06 - Gold Dragon part 6.flac -=- CDDA (100%)
007 -=- 07 - It Smells Like Frogs.flac -=- CDDA (100%)
Summary 99,86% CDDA
267683092
#771. The Closed Triptych (11:26)
2. Ghouls of the Sea (4:01)
3. Canal System (1:53)
4. Forbidden Fold (3:50)
5. Gloomy Emptiness (2:29)
6. Bowling for Slaughters (2:43)
7. Twisterlend (4:20)
released 26 November 2013
More information: http://music.bucketheadpikes.com/album/twisterlend
Код: Выделить всё
AUDIOCHECKER v2.0 beta (build 457) - by Dester - opdester@freemail.hu
~~~~~~~~~~~~~~~~~~~~~~~~~~~~~~~~~~
-=== DO NOT EDIT THIS FILE! ===-
Path: ...\039 - Twisterlend (2013)
001 -=- 01 - The Closed Triptych.flac -=- CDDA (100%)
002 -=- 02 - Ghouls of the Sea.flac -=- CDDA (99%)
003 -=- 03 - Canal System.flac -=- CDDA (100%)
004 -=- 04 - Forbidden Fold.flac -=- CDDA (100%)
005 -=- 05 - Gloomy Emptiness.flac -=- CDDA (100%)
006 -=- 06 - Bowling for Slaughters.flac -=- CDDA (100%)
007 -=- 07 - Twisterlend.flac -=- CDDA (100%)
Summary 99,86% CDDA
155967828
#771. Hall of Aluminum (3:13)
2. Coat of Charms (8:35)
3. Jettison part 1 (4:32)
4. Jettison part 2 (2:30)
5. Jettison part 3 (2:29)
6. Jettison part 4 (2:42)
7. Jettison part 5 (3:20)
8. Jettison part 6 (2:21)
released 11 December 2013
More information: http://music.bucketheadpikes.com/album/coat-of-charms
Код: Выделить всё
AUDIOCHECKER v2.0 beta (build 457) - by Dester - opdester@freemail.hu
~~~~~~~~~~~~~~~~~~~~~~~~~~~~~~~~~~
-=== DO NOT EDIT THIS FILE! ===-
Path: ...\040 - Coat of Charms (2013)
001 -=- 01 - Hall of Aluminum.flac -=- CDDA (100%)
002 -=- 02 - Coat of Charms.flac -=- CDDA (100%)
003 -=- 03 - Jettison part 1.flac -=- CDDA (100%)
004 -=- 04 - Jettison part 2.flac -=- CDDA (99%)
005 -=- 05 - Jettison part 3.flac -=- CDDA (100%)
006 -=- 06 - Jettison part 4.flac -=- CDDA (100%)
007 -=- 07 - Jettison part 5.flac -=- CDDA (100%)
008 -=- 08 - Jettison part 6.flac -=- CDDA (100%)
Summary 99,88% CDDA
102764996
#771. Ascending Soul (2:55)
2. Sharing Space (8:44)
3. The Sky is Heavy (15:06)
4. Wishes (6:21)
released 24 December 2013
More information: http://music.bucketheadpikes.com/album/wishes
Код: Выделить всё
AUDIOCHECKER v2.0 beta (build 457) - by Dester - opdester@freemail.hu
~~~~~~~~~~~~~~~~~~~~~~~~~~~~~~~~~~
-=== DO NOT EDIT THIS FILE! ===-
Path: ...\041 - Wishes (2013)
01 -=- 01 - Ascending Soul.flac -=- CDDA (99%)
02 -=- 02 - Sharing Space.flac -=- CDDA (100%)
03 -=- 03 - The Sky is Heavy.flac -=- CDDA (100%)
04 -=- 04 - Wishes.flac -=- CDDA (100%)
Summary 99,75% CDDA
204293652
#771. West of Arkham (10:03)
2. Backwards Chimney (3:33)
3. Cloth Held (6:31)
4. Sentinel Hill (6:16)
5. Other Paths (2:32)
released 26 February 2014
More information: http://music.bucketheadpikes.com/album/backwards-chimney
Код: Выделить всё
AUDIOCHECKER v2.0 beta (build 457) - by Dester - opdester@freemail.hu
~~~~~~~~~~~~~~~~~~~~~~~~~~~~~~~~~~
-=== DO NOT EDIT THIS FILE! ===-
Path: ...\042 - Backwards Chimney (2014)
001 -=- 01 - West of Arkham.flac -=- CDDA (100%)
002 -=- 02 - Backwards Chimney.flac -=- CDDA (100%)
003 -=- 03 - Cloth Held.flac -=- CDDA (100%)
004 -=- 04 - Sentinel Hill.flac -=- CDDA (100%)
005 -=- 05 - Other Paths.flac -=- CDDA (100%)
Summary 100,00% CDDA
250500004
#77Label/Cat#: Not On Label (Buckethead Self-released) – 43
Country: US
Year: 21 Jan 2014
Genre: Rock
Style: Alternative Rock, Instrumental
Format: CDr, Album, Limited Edition, Numbered
Tracklist
1. Untitled (4:16)
2. Untitled (7:33)
3. Untitled (8:13)
4. Untitled (1:12)
5. Untitled (10:31)
6. Untitled (1:20)
Total length: 33:05
More information: http://www.discogs.com/Bucketheadland-Pike-43/release/5348714
Код: Выделить всё
Exact Audio Copy V1.0 beta 4 from 7. December 2014
EAC extraction logfile from 3. January 2015, 19:33
Buckethead / 043
Used drive  : ATAPI   DVD A  DH20A3P   Adapter: 1  ID: 1
Read mode               : Secure
Utilize accurate stream : Yes
Defeat audio cache      : Yes
Make use of C2 pointers : No
Read offset correction                      : 6
Overread into Lead-In and Lead-Out          : No
Fill up missing offset samples with silence : Yes
Delete leading and trailing silent blocks   : No
Null samples used in CRC calculations       : Yes
Used interface                              : Native Win32 interface for Win NT & 2000
Gap handling                                : Appended to previous track
Used output format              : User Defined Encoder
Selected bitrate                : 128 kBit/s
Quality                         : High
Add ID3 tag                     : No
Command line compressor         : C:\Program Files\Exact Audio Copy\Flac\flac.exe
Additional command line options : -8 -V -T "ARTIST=%artist%" -T "TITLE=%title%" -T "ALBUM=%albumtitle%" -T "DATE=%year%" -T "TRACKNUMBER=%tracknr%" -T "GENRE=%genre%" -T "PERFORMER=%albuminterpret%" -T "COMPOSER=%composer%" %haslyrics%--tag-from-file=LYRICS="%lyricsfile%"%haslyrics% -T "ALBUMARTIST=%albumartist%" -T "DISCNUMBER=%cdnumber%" -T "TOTALDISCS=%totalcds%" -T "TOTALTRACKS=%numtracks%" -T "COMMENT=%comment%" %source% -o %dest%
TOC of the extracted CD
     Track |   Start  |  Length  | Start sector | End sector
    ---------------------------------------------------------
        1  |  0:00.00 |  4:16.26 |         0    |    19225
        2  |  4:16.26 |  7:33.16 |     19226    |    53216
        3  | 11:49.42 |  8:13.33 |     53217    |    90224
        4  | 20:03.00 |  1:12.37 |     90225    |    95661
        5  | 21:15.37 | 10:30.48 |     95662    |   142959
        6  | 31:46.10 |  1:19.50 |    142960    |   148934
Track  1
     Filename C:\rips\Buckethead - 043 (2013) [FLAC]\01 - Track01.wav
     Pre-gap length  0:00:02.00
     Peak level 100.0 %
     Extraction speed 4.9 X
     Track quality 100.0 %
     Test CRC 26578121
     Copy CRC 26578121
     Cannot be verified as accurate (confidence 1)  [A7286930], AccurateRip returned [D50180C7]  (AR v2)
     Copy OK
Track  2
     Filename C:\rips\Buckethead - 043 (2013) [FLAC]\02 - Track02.wav
     Peak level 100.0 %
     Extraction speed 5.8 X
     Track quality 100.0 %
     Test CRC DA1F6874
     Copy CRC DA1F6874
     Cannot be verified as accurate (confidence 1)  [F4ACEC8F], AccurateRip returned [B0E9F949]  (AR v2)
     Copy OK
Track  3
     Filename C:\rips\Buckethead - 043 (2013) [FLAC]\03 - Track03.wav
     Peak level 100.0 %
     Extraction speed 6.6 X
     Track quality 100.0 %
     Test CRC C2A95529
     Copy CRC C2A95529
     Cannot be verified as accurate (confidence 1)  [D6265542], AccurateRip returned [65B27839]  (AR v2)
     Copy OK
Track  4
     Filename C:\rips\Buckethead - 043 (2013) [FLAC]\04 - Track04.wav
     Peak level 99.3 %
     Extraction speed 5.0 X
     Track quality 100.0 %
     Test CRC EA1B5C64
     Copy CRC EA1B5C64
     Cannot be verified as accurate (confidence 1)  [C5E7969C], AccurateRip returned [24E810DE]  (AR v2)
     Copy OK
Track  5
     Filename C:\rips\Buckethead - 043 (2013) [FLAC]\05 - Track05.wav
     Peak level 96.6 %
     Extraction speed 7.7 X
     Track quality 100.0 %
     Test CRC 7535B453
     Copy CRC 7535B453
     Cannot be verified as accurate (confidence 1)  [F7423E28], AccurateRip returned [D6B267C6]  (AR v2)
     Copy OK
Track  6
     Filename C:\rips\Buckethead - 043 (2013) [FLAC]\06 - Track06.wav
     Peak level 100.0 %
     Extraction speed 3.6 X
     Track quality 99.8 %
     Test CRC 3DA0A239
     Copy CRC 3DA0A239
     Cannot be verified as accurate (confidence 1)  [2F1374B2], AccurateRip returned [A2E96083]  (AR v2)
     Copy OK
No tracks could be verified as accurate
You may have a different pressing from the one(s) in the database
No errors occurred
End of status report
==== Log checksum 96A3223D83AD36F05D8E94D3B1E5D313D0F25155BFD1A67564A71C2B27F85DF4 ====
Код: Выделить всё
REM GENRE "Instrumental Rock"
REM DATE 2013
REM DISCID 4507C106
REM COMMENT "ExactAudioCopy v1.0b4"
PERFORMER "Buckethead"
TITLE "043"
FILE "01 - Track01.wav" WAVE
  TRACK 01 AUDIO
    TITLE "Track01"
    PERFORMER "Buckethead"
    INDEX 01 00:00:00
FILE "02 - Track02.wav" WAVE
  TRACK 02 AUDIO
    TITLE "Track02"
    PERFORMER "Buckethead"
    INDEX 01 00:00:00
FILE "03 - Track03.wav" WAVE
  TRACK 03 AUDIO
    TITLE "Track03"
    PERFORMER "Buckethead"
    INDEX 01 00:00:00
FILE "04 - Track04.wav" WAVE
  TRACK 04 AUDIO
    TITLE "Track04"
    PERFORMER "Buckethead"
    INDEX 01 00:00:00
FILE "05 - Track05.wav" WAVE
  TRACK 05 AUDIO
    TITLE "Track05"
    PERFORMER "Buckethead"
    INDEX 01 00:00:00
FILE "06 - Track06.wav" WAVE
  TRACK 06 AUDIO
    TITLE "Track06"
    PERFORMER "Buckethead"
    INDEX 01 00:00:00
Код: Выделить всё
AUDIOCHECKER v2.0 beta (build 457) - by Dester - opdester@freemail.hu
~~~~~~~~~~~~~~~~~~~~~~~~~~~~~~~~~~
-=== DO NOT EDIT THIS FILE! ===-
Path: ...\043 (2013)
01 -=- 01 - Track01.flac -=- CDDA (100%)
02 -=- 02 - Track02.flac -=- CDDA (100%)
03 -=- 03 - Track03.flac -=- CDDA (99%)
04 -=- 04 - Track04.flac -=- CDDA (100%)
05 -=- 05 - Track05.flac -=- CDDA (99%)
06 -=- 06 - Track06.flac -=- CDDA (100%)
Summary 99,67% CDDA
242040804
#771. You Can't Triple Stamp a Double Stamp (2:28)
2. Avalanche (2:03)
3. Cripes (1:47)
4. Silent City (2:31)
5. Treedotted Hillside (1:45)
6. Wormfarm (1:51)
7. Prominent Ghosts (3:18)
8. Flickering Lights (2:03)
9. Extra Gloves (2:19)
10. Portrait Gallery (2:32)
11. Tea and Strumpets (2:11)
12. By The Moon (1:58)
13. Snow Owl (3:07)
released 09 January 2014
More information: http://music.bucketheadpikes.com/album/you-cant-triple-stamp-a-double-stamp
Код: Выделить всё
AUDIOCHECKER v2.0 beta (build 457) - by Dester - opdester@freemail.hu
~~~~~~~~~~~~~~~~~~~~~~~~~~~~~~~~~~
-=== DO NOT EDIT THIS FILE! ===-
Path: ...\044 - You Can't Triple Stamp a Double Stamp (2014)
001 -=- 01 - You Can't Triple Stamp a Double Stamp.flac -=- CDDA (100%)
002 -=- 02 - Avalanche.flac -=- CDDA (100%)
003 -=- 03 - Cripes.flac -=- CDDA (100%)
004 -=- 04 - Silent City.flac -=- CDDA (100%)
005 -=- 05 - Treedotted Hillside.flac -=- CDDA (100%)
006 -=- 06 - Wormfarm.flac -=- CDDA (100%)
007 -=- 07 - Prominent Ghosts.flac -=- CDDA (100%)
008 -=- 08 - Flickering Lights.flac -=- CDDA (100%)
009 -=- 09 - Extra Gloves.flac -=- CDDA (100%)
010 -=- 10 - Portrait Gallery.flac -=- CDDA (100%)
011 -=- 11 - Tea and Strumpets.flac -=- CDDA (100%)
012 -=- 12 - By The Moon.flac -=- CDDA (100%)
013 -=- 13 - Snow Owl.flac -=- CDDA (100%)
Summary 100,00% CDDA
102970900
#771. The Coats of Claude (13:26)
2. Ghost in the Rocking Chair (3:00)
3. Animatronic Party Goers (2:31)
4. Dancing Backwards (2:25)
5. Forked Beak (1:48)
6. Dimly Backlit Eyeballs (2:29)
7. Headless Reflection (4:21)
More information: http://music.bucketheadpikes.com/album/the-coats-of-claude
Код: Выделить всё
AUDIOCHECKER v2.0 beta (build 457) - by Dester - opdester@freemail.hu
~~~~~~~~~~~~~~~~~~~~~~~~~~~~~~~~~~
-=== DO NOT EDIT THIS FILE! ===-
Path: ...\045 - The Coats of Claude (2014)
001 -=- 01 - The Coats of Claude.flac -=- CDDA (100%)
002 -=- 02 - Ghost in the Rocking Chair.flac -=- CDDA (100%)
003 -=- 03 - Animatronic Party Goers.flac -=- CDDA (100%)
004 -=- 04 - Dancing Backwards.flac -=- CDDA (100%)
005 -=- 05 - Forked Beak.flac -=- CDDA (100%)
006 -=- 06 - Dimly Backlit Eyeballs.flac -=- CDDA (100%)
007 -=- 07 - Headless Reflection.flac -=- CDDA (100%)
Summary 100,00% CDDA
44220532
#771. See-Through Cloud (9:03)
2. Underwater Rain Drops (9:42)
3. Light Through the Fog (9:30)
4. Rainbow (2:53)
More information: http://music.bucketheadpikes.com/album/rainy-days
Код: Выделить всё
AUDIOCHECKER v2.0 beta (build 457) - by Dester - opdester@freemail.hu
~~~~~~~~~~~~~~~~~~~~~~~~~~~~~~~~~~
-=== DO NOT EDIT THIS FILE! ===-
Path: ...\046 - Rainy Days (2014)
001 -=- 01 - See-Through Cloud.flac -=- CDDA (99%)
002 -=- 02 - Underwater Rain Drops.flac -=- CDDA (100%)
003 -=- 03 - Light Through the Fog.flac -=- CDDA (100%)
004 -=- 04 - Rainbow.flac -=- CDDA (100%)
Summary 99,75% CDDA
80818916
#771. Room 7 (15:21)
2. Room 12 (14:46)
released 01 March 2014
More information: http://music.bucketheadpikes.com/album/roller-coaster-track-repair
Код: Выделить всё
AUDIOCHECKER v2.0 beta (build 457) - by Dester - opdester@freemail.hu
~~~~~~~~~~~~~~~~~~~~~~~~~~~~~~~~~~
-=== DO NOT EDIT THIS FILE! ===-
Path: ...\047 - Roller Coaster Track Repair (2014)
1 -=- 01 - Room 7.flac -=- CDDA (100%)
2 -=- 02 - Room 12.flac -=- CDDA (100%)
Summary 100,00% CDDA
49040372
#771. Hide in the Pickling Jar (9:21)
2. Countersunk (7:41)
3. Squirrel on a Perch (3:45)
4. Sabertooth Saw (10:06)
released 07 February 2014
More information: http://music.bucketheadpikes.com/album/hide-in-the-pickling-jar
Код: Выделить всё
AUDIOCHECKER v2.0 beta (build 457) - by Dester - opdester@freemail.hu
~~~~~~~~~~~~~~~~~~~~~~~~~~~~~~~~~~
-=== DO NOT EDIT THIS FILE! ===-
Path: ...\048 - Hide in the Pickling Jar (2014)
001 -=- 01 - Hide in the Pickling Jar.flac -=- CDDA (100%)
002 -=- 02 - Countersunk.flac -=- CDDA (99%)
003 -=- 03 - Squirrel on a Perch.flac -=- CDDA (100%)
004 -=- 04 - Sabertooth Saw.flac -=- CDDA (100%)
Summary 99,75% CDDA
18656996
#771. Monument Valley (7:17)
2. Fembot (11:48)
3. Attic Floor (1:19)
4. Lirtson Nostril (9:10)
released 07 February 2014
More information: http://music.bucketheadpikes.com/album/monument-valley
Код: Выделить всё
AUDIOCHECKER v2.0 beta (build 457) - by Dester - opdester@freemail.hu
~~~~~~~~~~~~~~~~~~~~~~~~~~~~~~~~~~
-=== DO NOT EDIT THIS FILE! ===-
Path: ...\049 - Monument Valley (2014)
01 -=- 01 - Monument Valley.flac -=- CDDA (100%)
02 -=- 02 - Fembot.flac -=- CDDA (100%)
03 -=- 03 - Attic Floor.flac -=- CDDA (76%)
04 -=- 04 - Lirtson Nostril.flac -=- CDDA (100%)
Summary 94,00% CDDA
50969140
#771. Pitch Dark (12:42)
2. Drifting Ice (8:03)
3. Water Drops (9:13)
released 25 February 2014
More information: http://music.bucketheadpikes.com/album/pitch-dark
Код: Выделить всё
AUDIOCHECKER v2.0 beta (build 457) - by Dester - opdester@freemail.hu
~~~~~~~~~~~~~~~~~~~~~~~~~~~~~~~~~~
-=== DO NOT EDIT THIS FILE! ===-
Path: ...\050 - Pitch Dark (2014)
001 -=- 01 - Pitch Dark.flac -=- CDDA (100%)
002 -=- 02 - Drifting Ice.flac -=- CDDA (100%)
003 -=- 03 - Water Drops.flac -=- CDDA (99%)
Summary 99,67% CDDA
174256212
#771. Claymation Courtyard (5:02)
2. Disintegration Mirrors (14:01)
3. Chainsaw Slide (2:26)
4. Eerie Canal (8:48)
released 21 April 2014
More information: http://music.bucketheadpikes.com/album/claymation-courtyard
Код: Выделить всё
AUDIOCHECKER v2.0 beta (build 457) - by Dester - opdester@freemail.hu
~~~~~~~~~~~~~~~~~~~~~~~~~~~~~~~~~~
-=== DO NOT EDIT THIS FILE! ===-
Path: ...\051 - Claymation Courtyard (2014)
001 -=- 01 - Claymation Courtyard.flac -=- CDDA (100%)
002 -=- 02 - Disintegration Mirrors.flac -=- CDDA (100%)
003 -=- 03 - Chainsaw Slide.flac -=- CDDA (100%)
004 -=- 04 - Eerie Canal.flac -=- CDDA (100%)
Summary 100,00% CDDA
65035428
#771. Factory Q (2:28)
2. Factory R (2:50)
3. Factory S (3:27)
4. Factory T (3:44)
5. Factory U (2:49)
6. Factory V (3:18)
7. Factory W (2:53)
8. Factory X (3:05)
9. Factory Y (2:41)
10. Factory Z (2:38)
released 13 March 2014
More information: http://music.bucketheadpikes.com/album/factory
Код: Выделить всё
AUDIOCHECKER v2.0 beta (build 457) - by Dester - opdester@freemail.hu
~~~~~~~~~~~~~~~~~~~~~~~~~~~~~~~~~~
-=== DO NOT EDIT THIS FILE! ===-
Path: ...\052 - Factory (2014)
001 -=- 01 - Factory Q.flac -=- CDDA (100%)
002 -=- 02 - Factory R.flac -=- CDDA (100%)
003 -=- 03 - Factory S.flac -=- CDDA (99%)
004 -=- 04 - Factory T.flac -=- CDDA (100%)
005 -=- 05 - Factory U.flac -=- CDDA (100%)
006 -=- 06 - Factory V.flac -=- CDDA (100%)
007 -=- 07 - Factory W.flac -=- CDDA (100%)
008 -=- 08 - Factory X.flac -=- CDDA (100%)
009 -=- 09 - Factory Y.flac -=- CDDA (100%)
010 -=- 10 - Factory Z.flac -=- CDDA (100%)
Summary 99,90% CDDA
228702996
#771. City of Ferris Wheels (13:30)
2. Lost Toys (10:43)
3. The Cape of Good Hope (7:20)
released 23 March 2014
More information: http://music.bucketheadpikes.com/album/city-of-ferris-wheels
Код: Выделить всё
AUDIOCHECKER v2.0 beta (build 457) - by Dester - opdester@freemail.hu
~~~~~~~~~~~~~~~~~~~~~~~~~~~~~~~~~~
-=== DO NOT EDIT THIS FILE! ===-
Path: ...\053 - City of Ferris Wheels (2014)
001 -=- 01 - City of Ferris Wheels.flac -=- CDDA (100%)
002 -=- 02 - Lost Toys.flac -=- CDDA (100%)
003 -=- 03 - The Cape of Good Hope.flac -=- CDDA (100%)
Summary 100,00% CDDA
251771348
#771. Boris (8:13)
2. Kar (13:58)
3. Loff (8:28)
released 27 March 2014
More information: http://music.bucketheadpikes.com/album/the-frankensteins-monsters-blinds
Код: Выделить всё
AUDIOCHECKER v2.0 beta (build 457) - by Dester - opdester@freemail.hu
~~~~~~~~~~~~~~~~~~~~~~~~~~~~~~~~~~
-=== DO NOT EDIT THIS FILE! ===-
Path: ...\054 - The Frankensteins Monsters Blinds (2014)
001 -=- 01 - Boris.flac -=- CDDA (100%)
002 -=- 02 - Kar.flac -=- CDDA (100%)
003 -=- 03 - Loff.flac -=- CDDA (100%)
Summary 100,00% CDDA
125407060
#771. M (3:59)
2. I (6:05)
3. S (0:54)
4. K (5:42)
5. A (1:23)
6. T (2:51)
7. O (4:35)
8. N (4:10)
released 23 May 2014
More information: http://music.bucketheadpikes.com/album/the-miskatonic-scale
Код: Выделить всё
AUDIOCHECKER v2.0 beta (build 457) - by Dester - opdester@freemail.hu
~~~~~~~~~~~~~~~~~~~~~~~~~~~~~~~~~~
-=== DO NOT EDIT THIS FILE! ===-
Path: ...\055 - The Miskatonic Scale (2014)
001 -=- 01 - M.flac -=- CDDA (100%)
002 -=- 02 - I.flac -=- CDDA (100%)
003 -=- 03 - S.flac -=- CDDA (100%)
004 -=- 04 - K.flac -=- CDDA (99%)
005 -=- 05 - A.flac -=- CDDA (100%)
006 -=- 06 - T.flac -=- CDDA (100%)
007 -=- 07 - O.flac -=- CDDA (100%)
008 -=- 08 - N.flac -=- CDDA (49%)
Summary 93,50% CDDA
264168116
#771. Repair Station (7:31)
2. Cycle (9:52)
3. Replacement Decal (13:06)
released 17 April 2014
More information: http://music.bucketheadpikes.com/album/cycle
Код: Выделить всё
AUDIOCHECKER v2.0 beta (build 457) - by Dester - opdester@freemail.hu
~~~~~~~~~~~~~~~~~~~~~~~~~~~~~~~~~~
-=== DO NOT EDIT THIS FILE! ===-
Path: ...\056 - Cycle (2014)
001 -=- 01 - Repair Station.flac -=- CDDA (100%)
002 -=- 02 - Cycle.flac -=- CDDA (100%)
003 -=- 03 - Replacement Decal.flac -=- CDDA (100%)
Summary 100,00% CDDA
34339012
#771. Painting 1 (12:35)
2. Painting 2 (4:30)
3. Painting 3 (7:45)
4. Painting 4 (5:22)
released 28 April 2014
More information: http://music.bucketheadpikes.com/album/night-gallery
Код: Выделить всё
AUDIOCHECKER v2.0 beta (build 457) - by Dester - opdester@freemail.hu
~~~~~~~~~~~~~~~~~~~~~~~~~~~~~~~~~~
-=== DO NOT EDIT THIS FILE! ===-
Path: ...\057 - Night Gallery (2014)
001 -=- 01 - Painting 1.flac -=- CDDA (100%)
002 -=- 02 - Painting 2.flac -=- CDDA (100%)
003 -=- 03 - Painting 3.flac -=- CDDA (100%)
004 -=- 04 - Painting 4.flac -=- CDDA (100%)
Summary 100,00% CDDA
126177700
#771. Outpost (7:40)
2. Minor Domo (11:10)
3. Electric Umbrella (2:48)
4. Pressed Pennies (3:04)
5. Look Through (4:21)
released 30 April 2014
More information: http://music.bucketheadpikes.com/album/outpost
Код: Выделить всё
AUDIOCHECKER v2.0 beta (build 457) - by Dester - opdester@freemail.hu
~~~~~~~~~~~~~~~~~~~~~~~~~~~~~~~~~~
-=== DO NOT EDIT THIS FILE! ===-
Path: ...\058 - Outpost (2014)
001 -=- 01 - Outpost.flac -=- CDDA (100%)
002 -=- 02 - Minor Domo.flac -=- CDDA (100%)
003 -=- 03 - Electric Umbrella.flac -=- CDDA (100%)
004 -=- 04 - Pressed Pennies.flac -=- CDDA (100%)
005 -=- 05 - Look Through.flac -=- CDDA (100%)
Summary 100,00% CDDA
48425188
#771. ID 1 (2:50)
2. ID 2 (3:36)
3. ID 3 (2:37)
4. ID 4 (2:05)
5. ID 5 (2:30)
6. ID 6 (2:48)
7. ID 7 (2:37)
8. ID 8 (3:31)
9. ID 9 (3:15)
10. ID 10 (3:29)
released 10 July 2014
More information: http://music.bucketheadpikes.com/album/ydrapoej
Код: Выделить всё
AUDIOCHECKER v2.0 beta (build 457) - by Dester - opdester@freemail.hu
~~~~~~~~~~~~~~~~~~~~~~~~~~~~~~~~~~
-=== DO NOT EDIT THIS FILE! ===-
Path: ...\059 - Ydrapoej (2014)
001 -=- 01 - ID 1.flac -=- CDDA (100%)
002 -=- 02 - ID 2.flac -=- CDDA (100%)
003 -=- 03 - ID 3.flac -=- CDDA (100%)
004 -=- 04 - ID 4.flac -=- CDDA (100%)
005 -=- 05 - ID 5.flac -=- CDDA (100%)
006 -=- 06 - ID 6.flac -=- CDDA (100%)
007 -=- 07 - ID 7.flac -=- CDDA (100%)
008 -=- 08 - ID 8.flac -=- CDDA (99%)
009 -=- 09 - ID 9.flac -=- CDDA (100%)
010 -=- 10 - ID 10.flac -=- CDDA (100%)
Summary 99,90% CDDA
52658708
#771. Footsteps (29:15)
released 13 May 2014
More information: http://music.bucketheadpikes.com/album/footsteps
Код: Выделить всё
AUDIOCHECKER v2.0 beta (build 457) - by Dester - opdester@freemail.hu
~~~~~~~~~~~~~~~~~~~~~~~~~~~~~~~~~~
-=== DO NOT EDIT THIS FILE! ===-
Path: ...\060 - Footsteps (2014)
001 -=- 01 - Footsteps.flac -=- CDDA (100%)
220471892
#771. Citacis 72 (3:18)
2. Citacis 73 (3:05)
3. Citacis 74 (2:59)
4. Citacis 75 (3:01)
5. Citacis 76 (3:46)
6. Citacis 77 (4:34)
7. Citacis 78 (1:46)
8. Citacis 79 (2:00)
9. Citacis 80 (4:40)
released 20 May 2014
More information: http://music.bucketheadpikes.com/album/citacis
Код: Выделить всё
AUDIOCHECKER v2.0 beta (build 457) - by Dester - opdester@freemail.hu
~~~~~~~~~~~~~~~~~~~~~~~~~~~~~~~~~~
-=== DO NOT EDIT THIS FILE! ===-
Path: ...\061 - Citacis (2014)
001 -=- 01 - Citacis 72.flac -=- CDDA (100%)
002 -=- 02 - Citacis 73.flac -=- CDDA (100%)
003 -=- 03 - Citacis 74.flac -=- CDDA (100%)
004 -=- 04 - Citacis 75.flac -=- CDDA (100%)
005 -=- 05 - Citacis 76.flac -=- CDDA (100%)
006 -=- 06 - Citacis 77.flac -=- CDDA (100%)
007 -=- 07 - Citacis 78.flac -=- CDDA (100%)
008 -=- 08 - Citacis 79.flac -=- CDDA (100%)
009 -=- 09 - Citacis 80.flac -=- CDDA (99%)
Summary 99,89% CDDA
229619396
#771. Citacis 63 (2:24)
2. Citacis 64 (2:38)
3. Citacis 65 (3:08)
4. Citacis 66 (3:10)
5. Citacis 67 (3:13)
6. Citacis 68 (2:33)
7. Citacis 69 (4:36)
8. Citacis 70 (4:36)
9. Citacis 71 (3:38)
released 28 May 2014
More information: http://music.bucketheadpikes.com/album/outlined-for-citacis
Код: Выделить всё
AUDIOCHECKER v2.0 beta (build 457) - by Dester - opdester@freemail.hu
~~~~~~~~~~~~~~~~~~~~~~~~~~~~~~~~~~
-=== DO NOT EDIT THIS FILE! ===-
Path: ...\062 - Outlined for Citacis (2014)
001 -=- 01 - Citacis 63.flac -=- CDDA (100%)
002 -=- 02 - Citacis 64.flac -=- CDDA (100%)
003 -=- 03 - Citacis 65.flac -=- CDDA (99%)
004 -=- 04 - Citacis 66.flac -=- CDDA (100%)
005 -=- 05 - Citacis 67.flac -=- CDDA (100%)
006 -=- 06 - Citacis 68.flac -=- CDDA (100%)
007 -=- 07 - Citacis 69.flac -=- CDDA (100%)
008 -=- 08 - Citacis 70.flac -=- CDDA (100%)
009 -=- 09 - Citacis 71.flac -=- CDDA (99%)
Summary 99,78% CDDA
208373556
#771. Omplat (10:03)
2. Monster Zero (19:40)
released 28 May 2014
More information: http://music.bucketheadpikes.com/album/grand-gallery
Код: Выделить всё
AUDIOCHECKER v2.0 beta (build 457) - by Dester - opdester@freemail.hu
~~~~~~~~~~~~~~~~~~~~~~~~~~~~~~~~~~
-=== DO NOT EDIT THIS FILE! ===-
Path: ...\063 - Grand Gallery (2014)
001 -=- 01 - Omplat.flac -=- CDDA (54%)
002 -=- 02 - Monster Zero.flac -=- CDDA (62%)
Summary 58,00% CDDA
124121988
#771. Aquarium (3:50)
2. Without Form (4:33)
3. Attention Electric Cyclone (6:08)
4. Beyond the Windmill (7:41)
5. Hopper Feeding Mash (6:56)
released 21 July 2014
More information: http://music.bucketheadpikes.com/album/aquarium
Код: Выделить всё
AUDIOCHECKER v2.0 beta (build 457) - by Dester - opdester@freemail.hu
~~~~~~~~~~~~~~~~~~~~~~~~~~~~~~~~~~
-=== DO NOT EDIT THIS FILE! ===-
Path: ...\064 - Aquarium (2014)
1 -=- 01 - Aquarium.flac -=- CDDA (100%)
2 -=- 02 - Without Form.flac -=- CDDA (100%)
3 -=- 03 - Attention Electric Cyclone.flac -=- CDDA (100%)
4 -=- 04 - Beyond the Windmill.flac -=- CDDA (100%)
5 -=- 05 - Hopper Feeding Mash.flac -=- CDDA (100%)
Summary 100,00% CDDA
153076548
#771. N (3:48)
2. Y (2:36)
3. C (1:42)
4. 4 (4:50)
5. ev (2:03)
6. er (13:38)
released 25 June 2014
More information: http://music.bucketheadpikes.com/album/hold-me-forever-in-memory-of-my-mom-nancy-york-carroll
Код: Выделить всё
AUDIOCHECKER v2.0 beta (build 457) - by Dester - opdester@freemail.hu
~~~~~~~~~~~~~~~~~~~~~~~~~~~~~~~~~~
-=== DO NOT EDIT THIS FILE! ===-
Path: ...\065 - Hold Me Forever (In memory of my mom Nancy York Carroll) (2014)
001 -=- 01 - N.flac -=- CDDA (100%)
002 -=- 02 - Y.flac -=- CDDA (100%)
003 -=- 03 - C.flac -=- CDDA (100%)
004 -=- 04 - 4.flac -=- CDDA (100%)
005 -=- 05 - ev.flac -=- CDDA (100%)
006 -=- 06 - er.flac -=- CDDA (100%)
Summary 100,00% CDDA
246806084
#771. Leave the Light On (13:05)
2. Hospitality (7:13)
3. The Bellman (4:57)
4. This Room Sleeps One and a Half (5:23)
released 14 August 2014
More information: http://music.bucketheadpikes.com/album/leave-the-light-on
Код: Выделить всё
AUDIOCHECKER v2.0 beta (build 457) - by Dester - opdester@freemail.hu
~~~~~~~~~~~~~~~~~~~~~~~~~~~~~~~~~~
-=== DO NOT EDIT THIS FILE! ===-
Path: ...\066 - Leave the Light On (2014)
1 -=- 01 - Leave the Light On.flac -=- CDDA (100%)
2 -=- 02 - Hospitality.flac -=- CDDA (100%)
3 -=- 03 - The Bellman.flac -=- CDDA (100%)
4 -=- 04 - This Room Sleeps One and a Half.flac -=- CDDA (100%)
Summary 100,00% CDDA
206138852
#771. A (3:23)
2. C (3:10)
3. C (3:04)
4. 1 (3:55)
5. 3 (2:41)
6. 6 (2:34)
7. 5 (5:29)
8. 6 (5:50)
released 12 July 2014
More information: http://music.bucketheadpikes.com/album/abandoned-slaughterhouse
Код: Выделить всё
AUDIOCHECKER v2.0 beta (build 457) - by Dester - opdester@freemail.hu
~~~~~~~~~~~~~~~~~~~~~~~~~~~~~~~~~~
-=== DO NOT EDIT THIS FILE! ===-
Path: ...\067 - Abandoned Slaughterhouse (2014)
001 -=- 01 - A.flac -=- CDDA (100%)
002 -=- 02 - C.flac -=- CDDA (100%)
003 -=- 03 - C.flac -=- CDDA (100%)
004 -=- 04 - 1.flac -=- CDDA (100%)
005 -=- 05 - 3.flac -=- CDDA (100%)
006 -=- 06 - 6.flac -=- CDDA (100%)
007 -=- 07 - 5.flac -=- CDDA (100%)
008 -=- 08 - 6.flac -=- CDDA (100%)
Summary 100,00% CDDA
236272372
#771. 0 (4:54)
2. 3 (4:40)
3. 3 (5:32)
4. - (4:45)
5. 0 (4:23)
6. 3 (4:49)
released 18 July 2014
More information: http://music.bucketheadpikes.com/album/assignment-033-03
Код: Выделить всё
AUDIOCHECKER v2.0 beta (build 457) - by Dester - opdester@freemail.hu
~~~~~~~~~~~~~~~~~~~~~~~~~~~~~~~~~~
-=== DO NOT EDIT THIS FILE! ===-
Path: ...\068 - Assignment 033-03 (2014)
001 -=- 01 - 0.flac -=- CDDA (100%)
002 -=- 02 - 3.flac -=- CDDA (100%)
003 -=- 03 - 3.flac -=- CDDA (100%)
004 -=- 04 - -.flac -=- CDDA (100%)
005 -=- 05 - 0.flac -=- CDDA (100%)
006 -=- 06 - 3.flac -=- CDDA (100%)
Summary 100,00% CDDA
236875780
#77Label/Cat#: Not On Label (Buckethead Self-released) – 69SD
Country: US
Year: 04 Sep 2014
Genre: Rock
Style: Instrumental, Art Rock, Experimental, Hard Rock
Format: CDr, Album, Limited Edition, Numbered, Signed
Tracklist
1. Untitled (7:30)
2. Untitled (8:41)
3. Untitled (5:17)
4. Untitled (7:59)
Total length: 29:27
More information: http://www.discogs.com/Bucketheadland-Pike-69/release/6417852
Код: Выделить всё
Exact Audio Copy V1.0 beta 4 from 7. December 2014
EAC extraction logfile from 28. December 2014, 11:40
Buckethead / 069
Used drive  : ATAPI   DVD A  DH20A3P   Adapter: 1  ID: 1
Read mode               : Secure
Utilize accurate stream : Yes
Defeat audio cache      : Yes
Make use of C2 pointers : No
Read offset correction                      : 6
Overread into Lead-In and Lead-Out          : No
Fill up missing offset samples with silence : Yes
Delete leading and trailing silent blocks   : No
Null samples used in CRC calculations       : Yes
Used interface                              : Native Win32 interface for Win NT & 2000
Gap handling                                : Appended to previous track
Used output format              : User Defined Encoder
Selected bitrate                : 128 kBit/s
Quality                         : High
Add ID3 tag                     : No
Command line compressor         : C:\Program Files\Exact Audio Copy\Flac\flac.exe
Additional command line options : -8 -V -T "ARTIST=%artist%" -T "TITLE=%title%" -T "ALBUM=%albumtitle%" -T "DATE=%year%" -T "TRACKNUMBER=%tracknr%" -T "GENRE=%genre%" -T "PERFORMER=%albuminterpret%" -T "COMPOSER=%composer%" %haslyrics%--tag-from-file=LYRICS="%lyricsfile%"%haslyrics% -T "ALBUMARTIST=%albumartist%" -T "DISCNUMBER=%cdnumber%" -T "TOTALDISCS=%totalcds%" -T "TOTALTRACKS=%numtracks%" -T "COMMENT=%comment%" %source% -o %dest%
TOC of the extracted CD
     Track |   Start  |  Length  | Start sector | End sector
    ---------------------------------------------------------
        1  |  0:00.00 |  7:30.31 |         0    |    33780
        2  |  7:30.31 |  8:40.57 |     33781    |    72837
        3  | 16:11.13 |  5:16.71 |     72838    |    96608
        4  | 21:28.09 |  7:59.10 |     96609    |   132543
Track  1
     Filename C:\rips\Buckethead - 069 (2014) [FLAC]\01 - Track01.wav
     Pre-gap length  0:00:02.00
     Peak level 100.0 %
     Extraction speed 5.2 X
     Track quality 100.0 %
     Test CRC 41B64AD0
     Copy CRC 41B64AD0
     Accurately ripped (confidence 1)  [2602222F]  (AR v2)
     Copy OK
Track  2
     Filename C:\rips\Buckethead - 069 (2014) [FLAC]\02 - Track02.wav
     Peak level 100.0 %
     Extraction speed 6.1 X
     Track quality 100.0 %
     Test CRC 6D4108A3
     Copy CRC 6D4108A3
     Accurately ripped (confidence 1)  [DABE4481]  (AR v2)
     Copy OK
Track  3
     Filename C:\rips\Buckethead - 069 (2014) [FLAC]\03 - Track03.wav
     Peak level 100.0 %
     Extraction speed 6.4 X
     Track quality 100.0 %
     Test CRC 2516DC5C
     Copy CRC 2516DC5C
     Accurately ripped (confidence 1)  [91EDA30D]  (AR v2)
     Copy OK
Track  4
     Filename C:\rips\Buckethead - 069 (2014) [FLAC]\04 - Track04.wav
     Peak level 100.0 %
     Extraction speed 7.2 X
     Track quality 100.0 %
     Test CRC BC7E5304
     Copy CRC BC7E5304
     Accurately ripped (confidence 1)  [5B85E2CB]  (AR v2)
     Copy OK
All tracks accurately ripped
No errors occurred
End of status report
---- CUETools DB Plugin V2.1.4
[CTDB TOCID: qBMexShSF1tA9RT06IcAYtbyQ9A-] found
Submit result: already submitted
Track | CTDB Status
  1   | (1/1) Accurately ripped
  2   | (1/1) Accurately ripped
  3   | (1/1) Accurately ripped
  4   | (1/1) Accurately ripped
==== Log checksum 5992D0CDB9EDE2E5C763DF903B71B13B4FA0123EF6C1AE97163944FF36DF7EB0 ====
Код: Выделить всё
REM GENRE Instrumental Rock
REM DATE 2014
PERFORMER "Buckethead"
TITLE "069"
FILE "01 - Track01.flac" WAVE
  TRACK 01 AUDIO
    TITLE "Track01"
    PERFORMER "Buckethead"
    INDEX 01 00:00:00
FILE "02 - Track02.flac" WAVE
  TRACK 02 AUDIO
    TITLE "Track02"
    PERFORMER "Buckethead"
    INDEX 01 00:00:00
FILE "03 - Track03.flac" WAVE
  TRACK 03 AUDIO
    TITLE "Track03"
    PERFORMER "Buckethead"
    INDEX 01 00:00:00
FILE "04 - Track04.flac" WAVE
  TRACK 04 AUDIO
    TITLE "Track04"
    PERFORMER "Buckethead"
    INDEX 01 00:00:00
Код: Выделить всё
AUDIOCHECKER v2.0 beta (build 457) - by Dester - opdester@freemail.hu
~~~~~~~~~~~~~~~~~~~~~~~~~~~~~~~~~~
-=== DO NOT EDIT THIS FILE! ===-
Path: ...\069 (2014)
01 -=- 01 - Track01.flac -=- CDDA (99%)
02 -=- 02 - Track02.flac -=- CDDA (99%)
03 -=- 03 - Track03.flac -=- CDDA (100%)
04 -=- 04 - Track04.flac -=- CDDA (100%)
Summary 99,50% CDDA
117575700
#771. S 17 (2:43)
2. N 6 (7:30)
3. O 38 (5:03)
4. W 1 (5:10)
5. SL 52 (2:45)
6. U 12 (2:15)
7. G 81 (3:58)
released 29 July 2014
More information: http://music.bucketheadpikes.com/album/snow-slug
Продолжение оформления в следующих постах
 
Не забывайте говорить Спасибо. Не уходите с раздачи!   
Торрент: Зарегистрирован [20 апр 2018, 18:37] Скачать торрент
Скачать торрент
[ Размер 332.02 КБ / Просмотров 25 ]
Статус:
Проверен
 
.torrent скачан: 0 раз
Хэш: b72b9e49da8f6039071a7af95fb98de2a2557c59
Размер: 54.96 ГБ (59 008 976 027 байт)
Стать Автором раздачи
 
 
Раздал: 0 байт
Скачал: 0 байт
Ратио: Inf.
Сообщения: 487468
Зарегистрирован: 17 апр 2014, 13:57


  • Похожие торренты
    Ответы
    Просмотры
    Последнее сообщение

Вернуться в Avant-garde, Experimental Metal (lossless)

Ресурс не предоставляет электронные версии произведений, а занимается лишь коллекционированием и каталогизацией ссылок, присылаемых и публикуемых на форуме нашими читателями. Если вы являетесь правообладателем какого-либо представленного материала и не желаете чтобы ссылка на него находилась в нашем каталоге, свяжитесь с нами и мы незамедлительно удалим её. Файлы для обмена на трекере предоставлены пользователями сайта, и администрация не несёт ответственности за их содержание. Просьба не заливать файлы, защищенные авторскими правами, а также файлы нелегального содержания!
cron