Выстрел в голову / Пуля в голове / Tiro en la cabeza / Bullet in the Head (Хайме Росалес / Jaime Rosales) [2008, Испания, Франция, драма, DVDRip]

 
 Статистика раздачи 
Размер: 1.46 ГБ   |  Зарегистрирован: 17 апр 2018, 21:26   |   .torrent скачан: 0 раз
Сидеров: 1  [ 0 байт/сек ]     Личеров: 0  [ 0 байт/сек ]  
  

Выстрел в голову / Пуля в голове / Tiro en la cabeza / Bullet in the Head (Хайме Росалес / Jaime Rosales) [2008, Испания, Франция, драма, DVDRip]

Сообщение Nakazhu » 17 апр 2018, 21:26

Выстрел в голову / Пуля в голове / Tiro en la cabeza / Bullet in the Head
Страна: Испания, Франция
Жанр
: драма, экспериментальный
Год выпуска: 2008
Продолжительность: 01:22:06
Перевод: Не требуется
Субтитры: нет
Оригинальная аудиодорожка: испанский (Формально. На самом деле в фильме переводить нечего)
Режиссер: Хайме Росалес / Jaime Rosales
В ролях: Асун Арретхе, Ион Аррехе, Нерея Кобрерос, Иван Морено, Моник Дурин-Нури, Манза Гебара, Диего Гутиеррез, Хосе Анхель Лопетеги, Хайон Отхон, Стефани Пекастинг
Описание: Жизнь Иона ничем не отличается от любого другого человека. Он просыпается, завтракает, бегает, встречается с друзьями ... Его жизнь проста. Несколько телефонных звонков, флирт с девушками на вечеринках ... В глазах его семьи и соседей - нормальный человек, который ведет нормальную жизнь. Короче говоря, ничего необычного.
Директор Хайме Росалес обращается к проблеме террористического насилия. «Выстрел в голову» показывает террористическую атаку в декабре 2007 года: когда три члена ETA встретились случайным образом с двумя гражданскими охранниками в галльском городе Капбретон.
Режиссер представляет сюжет на расстоянии, используя телеобъективы. Персонажи и камера разделены на много метров. Художественный фильм, где диалог не слышен, только шум. Зритель появляется как вуайерист, который наблюдает ежедневную жизнь террористической группы ETA.

Качество видео: DVDRip
Формат видео
: AVI
Видео: 704x384 (1.83:1), 25 fps, XviD build 73 ~2080 kbps avg, 0.31 bit/pixel
Аудио: 48 kHz, AC3 Dolby Digital, 3/2 (L,C,R,l,r) + LFE ch, ~448 kbps
Код: Выделить всё
General
Complete name               : H:\Bullet.in.the.Head.2008.dvdrip_[1.46]_[teko].avi
Format                      : AVI
Format/Info                 : Audio Video Interleave
File size                   : 1.46 GiB
Duration                    : 1h 22mn
Overall bit rate            : 2 538 Kbps
Writing application         : VirtualDubMod 1.5.10.3 | www.virtualdub-fr.org || (build 2550/release)
Writing library             : VirtualDubMod build 2550/release
Video
ID                          : 0
Format                      : MPEG-4 Visual
Format profile              : Advanced Simple@L5
Format settings, BVOP       : 2
Format settings, QPel       : No
Format settings, GMC        : No warppoints
Format settings, Matrix     : Custom
Codec ID                    : XVID
Codec ID/Hint               : XviD
Duration                    : 1h 22mn
Bit rate                    : 2 081 Kbps
Width                       : 704 pixels
Height                      : 384 pixels
Display aspect ratio        : 1.85:1
Frame rate                  : 25.000 fps
Color space                 : YUV
Chroma subsampling          : 4:2:0
Bit depth                   : 8 bits
Scan type                   : Progressive
Compression mode            : Lossy
Bits/(Pixel*Frame)          : 0.308
Stream size                 : 1.19 GiB (82%)
Writing library             : XviD 73
Audio
ID                          : 1
Format                      : AC-3
Format/Info                 : Audio Coding 3
Mode extension              : CM (complete main)
Format settings, Endianness : Big
Codec ID                    : 2000
Duration                    : 1h 22mn
Bit rate mode               : Constant
Bit rate                    : 448 Kbps
Channel(s)                  : 6 channels
Channel positions           : Front: L C R, Side: L R, LFE
Sampling rate               : 48.0 KHz
Frame rate                  : 31.250 fps (1536 spf)
Compression mode            : Lossy
Stream size                 : 263 MiB (18%)
Alignment                   : Split accross interleaves
Interleave, duration        : 40 ms (1.00 video frame)
Interleave, preload duratio : 500 ms
Релиз группы:


 
Не забывайте говорить Спасибо. Не уходите с раздачи!   
Торрент: Зарегистрирован [17 апр 2018, 21:26] Скачать торрент
Скачать торрент
[ Размер 15.03 КБ / Просмотров 1 ]
Статус:
Проверен
 
.torrent скачан: 0 раз
Хэш: 51b0b85bdf8ea3e854a308783e719f215d571e89
Размер: 1.46 ГБ (1 563 181 056 байт)
Стать Автором раздачи
 
 
Раздал: 0 байт
Скачал: 0 байт
Ратио: Inf.
Сообщения: 487468
Зарегистрирован: 17 апр 2014, 13:57


  • Похожие торренты
    Ответы
    Просмотры
    Последнее сообщение

Вернуться в Арт-хаус и авторское кино

Ресурс не предоставляет электронные версии произведений, а занимается лишь коллекционированием и каталогизацией ссылок, присылаемых и публикуемых на форуме нашими читателями. Если вы являетесь правообладателем какого-либо представленного материала и не желаете чтобы ссылка на него находилась в нашем каталоге, свяжитесь с нами и мы незамедлительно удалим её. Файлы для обмена на трекере предоставлены пользователями сайта, и администрация не несёт ответственности за их содержание. Просьба не заливать файлы, защищенные авторскими правами, а также файлы нелегального содержания!
cron