Лесной царь / Огр / Der Unhold / The Ogre (Фолькер Шлендорфф / Volker Schlöndorff) [1996, Германия, Франция, Великобритания, драма, DVDRip] MVO (Екатеринбург Арт) + AVO (Юрий Сербин) + Sub Eng + Original Eng

 
 Статистика раздачи 
Размер: 2.19 ГБ   |  Зарегистрирован: 17 апр 2018, 20:58   |   .torrent скачан: 0 раз
Сидеров: 1  [ 0 байт/сек ]     Личеров: 0  [ 0 байт/сек ]  
  

Лесной царь / Огр / Der Unhold / The Ogre (Фолькер Шлендорфф / Volker Schlöndorff) [1996, Германия, Франция, Великобритания, драма, DVDRip] MVO (Екатеринбург Арт) + AVO (Юрий Сербин) + Sub Eng + Original Eng

Сообщение Nakazhu » 17 апр 2018, 20:58

Лесной царь / Огр / Der Unhold / The Ogre
Страна: Германия, Франция, Великобритания
Жанр
: драма
Год выпуска: 1996
Продолжительность: 01:57:54
Перевод: Профессиональный (многоголосый закадровый) - Екатеринбург Арт
Перевод: Авторский (одноголосый закадровый) - Юрий Сербин
Субтитры: английские
Оригинальная аудиодорожка: английский
Режиссер: Фолькер Шлендорфф / Volker Schlöndorff
В ролях: Джон Малкович, Армин Мюллер-Шталь, Аньес Сораль, Марианне Загебрехт, Вернон Добчефф, Саша Ханау, Готтфрид Джон, Люк Флориан
Описание: В то самое время, когда в Сталинграде капитулировали немецкие войска, француз Абель Тиффож, похожий на «черного монаха», странствовал по лесам в сопровождении огромных доберманов и отбирал детей в элитный тренировочный лагерь.
Абель работал в замке Кальтенборн, где сотни подростков занимались спортивными соревнованиями и военной подготовкой. Только при виде русских танков Абель понял, что готовил смертников…

Качество видео: DVDRip
Формат видео
: AVI
Видео: 720x400 (1.80:1), 23.976 fps, XviD build 73 ~2078 kbps avg, 0.30 bit/pixel
Аудио: 48 kHz, AC3 Dolby Digital, 2/0 (L,R) ch, ~192 kbps - многоголосый
Аудио: 48 kHz, AC3 Dolby Digital, 2/0 (L,R) ch, ~192 kbps - авторский
Аудио: 48 kHz, AC3 Dolby Digital, 2/0 (L,R) ch, ~192 kbps - оригинал
Формат субтитров: softsub (SRT)
http://rutracker.org/forum/viewtopic.php?t=214300
в старом рипе другая цветопередача и наполнение кадра больше.
честно сказать, сильно сомневаюсь, что сделал лучше, но Сербин теперь подсинхронен под DVD в удобный формат

urikis_______________________teko




Код: Выделить всё
General
Complete name               : H:\The.Ogre.1996.dvdrip_[2.18]_[teko]\The.Ogre.1996.dvdrip_[2.18].avi
Format                      : AVI
Format/Info                 : Audio Video Interleave
Format profile              : OpenDML
File size                   : 2.19 GiB
Duration                    : 1h 57mn
Overall bit rate            : 2 661 Kbps
Writing application         : VirtualDubMod 1.5.10.3 | www.virtualdub-fr.org || (build 2550/release)
Writing library             : VirtualDubMod build 2550/release
Video
ID                          : 0
Format                      : MPEG-4 Visual
Format profile              : Advanced Simple@L5
Format settings, BVOP       : 2
Format settings, QPel       : No
Format settings, GMC        : No warppoints
Format settings, Matrix     : Custom
Codec ID                    : XVID
Codec ID/Hint               : XviD
Duration                    : 1h 57mn
Bit rate                    : 2 062 Kbps
Width                       : 720 pixels
Height                      : 400 pixels
Display aspect ratio        : 16:9
Frame rate                  : 23.976 (24000/1001) fps
Color space                 : YUV
Chroma subsampling          : 4:2:0
Bit depth                   : 8 bits
Scan type                   : Progressive
Compression mode            : Lossy
Bits/(Pixel*Frame)          : 0.299
Stream size                 : 1.70 GiB (77%)
Writing library             : XviD 73
Audio #1
ID                          : 1
Format                      : AC-3
Format/Info                 : Audio Coding 3
Mode extension              : CM (complete main)
Format settings, Endianness : Big
Codec ID                    : 2000
Duration                    : 1h 57mn
Bit rate mode               : Constant
Bit rate                    : 192 Kbps
Channel(s)                  : 2 channels
Channel positions           : Front: L R
Sampling rate               : 48.0 KHz
Frame rate                  : 31.250 fps (1536 spf)
Compression mode            : Lossy
Stream size                 : 161 MiB (7%)
Alignment                   : Split accross interleaves
Interleave, duration        : 42 ms (1.00 video frame)
Interleave, preload duratio : 500 ms
Audio #2
ID                          : 2
Format                      : AC-3
Format/Info                 : Audio Coding 3
Mode extension              : CM (complete main)
Format settings, Endianness : Big
Codec ID                    : 2000
Duration                    : 1h 57mn
Bit rate mode               : Constant
Bit rate                    : 192 Kbps
Channel(s)                  : 2 channels
Channel positions           : Front: L R
Sampling rate               : 48.0 KHz
Frame rate                  : 31.250 fps (1536 spf)
Compression mode            : Lossy
Stream size                 : 162 MiB (7%)
Alignment                   : Split accross interleaves
Interleave, duration        : 42 ms (1.00 video frame)
Interleave, preload duratio : 500 ms
Audio #3
ID                          : 3
Format                      : AC-3
Format/Info                 : Audio Coding 3
Mode extension              : CM (complete main)
Format settings, Endianness : Big
Codec ID                    : 2000
Duration                    : 1h 57mn
Bit rate mode               : Constant
Bit rate                    : 192 Kbps
Channel(s)                  : 2 channels
Channel positions           : Front: L R
Sampling rate               : 48.0 KHz
Frame rate                  : 31.250 fps (1536 spf)
Compression mode            : Lossy
Stream size                 : 162 MiB (7%)
Alignment                   : Split accross interleaves
Interleave, duration        : 42 ms (1.00 video frame)
Interleave, preload duratio : 500 ms
Релиз группы:


 
Не забывайте говорить Спасибо. Не уходите с раздачи!   
Торрент: Зарегистрирован [17 апр 2018, 20:58] Для скачивания .torrent
необходима регистрация
Или скачать с помощью
MediaGet
Статус:
Проверен
 
.torrent скачан: 0 раз
Хэш: db0510934e138d3fc2a22f3a250dbd76aac9366c
Размер: 2.19 ГБ (2 353 355 558 байт)
Стать Автором раздачи
 
 
Раздал: 0 байт
Скачал: 0 байт
Ратио: Inf.
Сообщения: 487468
Зарегистрирован: 17 апр 2014, 13:57


  • Похожие торренты
    Ответы
    Просмотры
    Последнее сообщение

Вернуться в Арт-хаус и авторское кино

Ресурс не предоставляет электронные версии произведений, а занимается лишь коллекционированием и каталогизацией ссылок, присылаемых и публикуемых на форуме нашими читателями. Если вы являетесь правообладателем какого-либо представленного материала и не желаете чтобы ссылка на него находилась в нашем каталоге, свяжитесь с нами и мы незамедлительно удалим её. Файлы для обмена на трекере предоставлены пользователями сайта, и администрация не несёт ответственности за их содержание. Просьба не заливать файлы, защищенные авторскими правами, а также файлы нелегального содержания!
cron