Минуль / Котенок / Minoule / Gatinho (Николя Бьянко-Леврен / Nicolas Bianco-Levrin) [2014, Франция, авантюрная комедия, черный юмор, анимация, короткий метр, DVB]

 
 Статистика раздачи 
Размер: 83.16 МБ   |  Зарегистрирован: 17 апр 2018, 19:08   |   .torrent скачан: 0 раз
Сидеров: 1  [ 0 байт/сек ]     Личеров: 0  [ 0 байт/сек ]  
  

Минуль / Котенок / Minoule / Gatinho (Николя Бьянко-Леврен / Nicolas Bianco-Levrin) [2014, Франция, авантюрная комедия, черный юмор, анимация, короткий метр, DVB]

Сообщение Nakazhu » 17 апр 2018, 19:08

Минуль
Minoule
#77Страна: Франция
Жанр: авантюрная комедия, черный юмор, анимация, короткий метр
Год выпуска: 2014
Продолжительность: 00:03:30
Перевод: не требуется
Субтитры: нет
Оригинальная аудиодорожка: фоновые звуки
Режиссер: Николя Бьянко-Леврен / Nicolas Bianco-Levrin
Роли озвучивают: фоновые звуки
Описание: Путь, ведущий котёнка Минуля к маленькой канарейке-провакатору, живущей в здании напротив, полон неожиданных препятствий...
Доп. информация: Hot Bird (13.0°E) TV5MONDE Europe DVB-S
Награда: приз жюри Eureka! Tainan International Children’s Film Festival 2015. Участник 111 МКФ, в т.ч. Festival international du cinema independant IndieLisboa de Lisbonne 2015; Holland Animation Film Festival 2015; и др.
Качество видео: DVB
Формат видео: MKV
Видео: MPEG Video 2, 720x576@1024x576 (16:9), 25 fps, ~3050 kbps avg, 0.294 bit/pixel
Аудио: MPEG Audio 2, 2 ch, 48 kHz, 192 kbps
Код: Выделить всё
General
Unique ID                                : 161548555191300500495905718189030844971 (0x79891EB7C4048C03C2D7F6F6EAA72A2B)
Complete name                            : [apreder]MINI_MOVIES_10\[apreder]MM_Minoule(2014)DVB.mkv
Format                                   : Matroska
Format version                           : Version 2
File size                                : 83.2 MiB
Duration                                 : 3 min 30 s
Overall bit rate mode                    : Variable
Overall bit rate                         : 3 308 kb/s
Movie name                               : Minoule
Released date                            : 2014-10-13
Encoded date                             : UTC 2018-04-17 15:42:04
Writing application                      : mkvmerge v22.0.0 ('At The End Of The World') 64-bit
Writing library                          : libebml v1.3.5 + libmatroska v1.4.8
Cover                                    : Yes
Attachments                              : cover.jpg / small_cover.jpg
DIRECTOR                                 : Nicolas Bianco-Levrin
GENRE                                    : Short, Animation, Comedy
IMDB                                     : tt5806248
KEYWORDS                                 : rutracker.org
LAW_RATING                               : 12+
Video
ID                                       : 1
Format                                   : MPEG Video
Format version                           : Version 2
Format profile                           : Main@Main
Format settings                          : BVOP
Format settings, BVOP                    : Yes
Format settings, Matrix                  : Default
Format settings, GOP                     : Variable
Format settings, picture structure       : Frame
Codec ID                                 : V_MPEG2
Codec ID/Info                            : MPEG 1 or 2 Video
Duration                                 : 3 min 30 s
Bit rate mode                            : Variable
Bit rate                                 : 3 050 kb/s
Maximum bit rate                         : 15.0 Mb/s
Width                                    : 720 pixels
Height                                   : 576 pixels
Display aspect ratio                     : 16:9
Active Format Description                : Letterbox 16:9 image
Frame rate mode                          : Constant
Frame rate                               : 25.000 FPS
Standard                                 : PAL
Color space                              : YUV
Chroma subsampling                       : 4:2:0
Bit depth                                : 8 bits
Scan type                                : Interlaced
Scan order                               : Top Field First
Compression mode                         : Lossy
Bits/(Pixel*Frame)                       : 0.294
Stream size                              : 76.7 MiB (92%)
Default                                  : Yes
Forced                                   : No
Audio
ID                                       : 2
Format                                   : MPEG Audio
Format version                           : Version 1
Format profile                           : Layer 2
Format settings                          : Joint stereo / Intensity Stereo + MS Stereo
Codec ID                                 : A_MPEG/L2
Codec ID/Hint                            : MP2
Duration                                 : 3 min 30 s
Bit rate mode                            : Constant
Bit rate                                 : 192 kb/s
Channel(s)                               : 2 channels
Sampling rate                            : 48.0 kHz
Compression mode                         : Lossy
Stream size                              : 4.83 MiB (6%)
Language                                 : French
Default                                  : Yes
Forced                                   : No

[4'146]
 
Не забывайте говорить Спасибо. Не уходите с раздачи!   
Торрент: Зарегистрирован [17 апр 2018, 19:08] Для скачивания .torrent
необходима регистрация
Или скачать с помощью
MediaGet
Статус:
Проверен
 
.torrent скачан: 0 раз
Хэш: 6fe8ffe1a7ae3d933324fb2937ab9ede5c76bcbc
Размер: 83.16 МБ (87 202 250 байт)
Стать Автором раздачи
 
 
Раздал: 0 байт
Скачал: 0 байт
Ратио: Inf.
Сообщения: 437283
Зарегистрирован: 17 апр 2014, 13:57


  • Похожие торренты
    Ответы
    Просмотры
    Последнее сообщение

Вернуться в Арт-хаус и авторское кино

Ресурс не предоставляет электронные версии произведений, а занимается лишь коллекционированием и каталогизацией ссылок, присылаемых и публикуемых на форуме нашими читателями. Если вы являетесь правообладателем какого-либо представленного материала и не желаете чтобы ссылка на него находилась в нашем каталоге, свяжитесь с нами и мы незамедлительно удалим её. Файлы для обмена на трекере предоставлены пользователями сайта, и администрация не несёт ответственности за их содержание. Просьба не заливать файлы, защищенные авторскими правами, а также файлы нелегального содержания!
cron