Собачья жизнь / A Dog's Purpose (Лассе Халльстрём / Lasse Hallström) [2017, США, Индия, фэнтези, драма, комедия, семейный, BDRip-AVC] Dub + Sub Rus, Eng + Original Eng

 
 Статистика раздачи 
Размер: 1.46 ГБ   |  Зарегистрирован: 16 апр 2018, 17:18   |   .torrent скачан: 0 раз
Сидеров: 1  [ 0 байт/сек ]     Личеров: 0  [ 0 байт/сек ]  
  

Собачья жизнь / A Dog's Purpose (Лассе Халльстрём / Lasse Hallström) [2017, США, Индия, фэнтези, драма, комедия, семейный, BDRip-AVC] Dub + Sub Rus, Eng + Original Eng

Сообщение Nakazhu » 16 апр 2018, 17:18

Собачья жизнь / A Dog's Purpose
Страна: США, Индия
Жанр: фэнтези, драма, комедия, семейный
Год выпуска: 2017
Продолжительность: 01:40:02
Перевод: Профессиональный (дублированный) iTunes
Оригинальная аудиодорожка: Английский
Субтитры: Русские (Форсированные, Полные), Английские (Full, SDH, SDH-Colored)

Режиссер: Лассе Халльстрём / Lasse Hallström

В ролях: Джош Гад, Деннис Куэйд, Пегги Липтон, Кей Джей Апа, Брайс Гейзар, Джульет Райлэнс, Люк Кирби, Габриель Роз, Майкл Бофшевер, Бритт Робертсон, Логан Миллер, Кирби Хауэлл-Баптисте, Пуч Холл, Джон Ортис, Николь ЛаПлаца, Примо Аллон...

Описание: Собаки бывают разных пород, мастей и размеров. Они - наши самые верные и преданные друзья, а мы учим их хорошим манерам. Собаки всегда думают о нас, правда, иногда и о беконе. Все они каждый день провожают и встречают нас у порога в уверенности, что пока им есть, кого облизывать и любить, в их жизни есть смысл.

Доп. информация: | IMDB | КиноПоиск | Сэмпл |

Качество видео: BDRip-AVC
Формат видео: MKV
Видео: AVC, 960x402 (2.40:1), 1320 kbps, 23.976 fps, 0.143 bit/pixel
Аудио 1: AC3 Dolby Digital, 3/2 (L,C,R,l,r) + LFE ch, 48 kHz, 384 kbps
Аудио 2: AC3 Dolby Digital, 3/2 (L,C,R,l,r) + LFE ch, 48 kHz, 384 kbps
Формат субтитров: softsub (SRT)
x264 [info]: profile High, level 4.1
x264 [info]: frame I:1356 Avg QP:16.88 size: 57617
x264 [info]: frame P:31704 Avg QP:20.79 size: 14805
x264 [info]: frame B:110848 Avg QP:22.10 size: 3998
x264 [info]: consecutive B-frames: 2.4% 2.3% 8.4% 27.6% 17.2% 28.3% 4.7% 2.5% 1.4% 0.7% 0.7% 1.1% 0.6% 0.6% 0.4% 1.0%
x264 [info]: mb I I16..4: 5.8% 72.6% 21.6%
x264 [info]: mb P I16..4: 1.5% 10.3% 2.1% P16..4: 38.7% 23.1% 13.4% 0.0% 0.0% skip:10.8%
x264 [info]: mb B I16..4: 0.2% 1.0% 0.2% B16..8: 35.3% 8.9% 2.4% direct: 3.6% skip:48.3% L0:43.7% L1:44.3% BI:12.0%
x264 [info]: 8x8 transform intra:73.1% inter:66.1%
x264 [info]: direct mvs spatial:98.0% temporal:2.0%
x264 [info]: coded y,uvDC,uvAC intra: 76.9% 82.0% 56.7% inter: 16.2% 14.8% 6.9%
x264 [info]: i16 v,h,dc,p: 32% 15% 7% 46%
x264 [info]: i8 v,h,dc,ddl,ddr,vr,hd,vl,hu: 18% 9% 7% 8% 12% 12% 12% 11% 12%
x264 [info]: i4 v,h,dc,ddl,ddr,vr,hd,vl,hu: 26% 7% 4% 8% 12% 12% 11% 9% 10%
x264 [info]: i8c dc,h,v,p: 37% 23% 22% 17%
x264 [info]: Weighted P-Frames: Y:6.9% UV:2.6%
x264 [info]: ref P L0: 52.7% 11.5% 13.1% 6.3% 4.5% 3.5% 2.7% 1.6% 1.3% 1.1% 0.9% 0.8% 0.0% 0.0%
x264 [info]: ref B L0: 73.9% 11.8% 5.6% 2.7% 1.9% 1.4% 1.1% 0.6% 0.5% 0.3% 0.1%
x264 [info]: ref B L1: 94.1% 5.9%
x264 [info]: kb/s:1320.44
General
Unique ID : 199237114782106036885749737243992204835 (0x95E3AC2B87B85B4892001965EC3D2623)
Complete name : A Dog's Purpose (2017).mkv
Format : Matroska
Format version : Version 4 / Version 2
File size : 1.46 GiB
Duration : 1 h 40 min
Overall bit rate : 2 091 kb/s
Movie name : Собачья жизнь / A Dog's Purpose (2017)
Encoded date : UTC 2018-04-16 14:00:35
Writing application : mkvmerge v8.1.0 ('Psychedelic Postcard') 64bit
Writing library : libebml v1.3.1 + libmatroska v1.4.2
Cover : Yes
Attachments : cover.jpg
Video
ID : 1
Format : AVC
Format/Info : Advanced Video Codec
Format profile : High@L4.1
Format settings : CABAC / 12 Ref Frames
Format settings, CABAC : Yes
Format settings, ReFrames : 12 frames
Codec ID : V_MPEG4/ISO/AVC
Duration : 1 h 40 min
Bit rate : 1 320 kb/s
Width : 960 pixels
Height : 402 pixels
Display aspect ratio : 2.40:1
Frame rate mode : Constant
Frame rate : 23.976 (24000/1001) FPS
Color space : YUV
Chroma subsampling : 4:2:0
Bit depth : 8 bits
Scan type : Progressive
Bits/(Pixel*Frame) : 0.143
Stream size : 945 MiB (63%)
Title : A Dog's Purpose (2017) By optik.1557
Writing library : x264 core 155 r2901 7d0ff22
Encoding settings : cabac=1 / ref=12 / deblock=1:-2:-1 / analyse=0x3:0x113 / me=umh / subme=10 / psy=1 / psy_rd=1.05:0.01 / mixed_ref=1 / me_range=48 / chroma_me=1 / trellis=2 / 8x8dct=1 / cqm=0 / deadzone=21,11 / fast_pskip=0 / chroma_qp_offset=-3 / threads=6 / lookahead_threads=1 / sliced_threads=0 / nr=0 / decimate=0 / interlaced=0 / bluray_compat=0 / constrained_intra=0 / bframes=15 / b_pyramid=2 / b_adapt=2 / b_bias=0 / direct=3 / weightb=1 / open_gop=0 / weightp=2 / keyint=250 / keyint_min=23 / scenecut=40 / intra_refresh=0 / rc_lookahead=60 / rc=2pass / mbtree=0 / bitrate=1320 / ratetol=1.0 / qcomp=0.70 / qpmin=0 / qpmax=69 / qpstep=4 / cplxblur=20.0 / qblur=0.5 / vbv_maxrate=50000 / vbv_bufsize=62500 / nal_hrd=none / filler=0 / ip_ratio=1.40 / pb_ratio=1.30 / aq=3:0.85
Language : English
Default : Yes
Forced : No
Audio #1
ID : 2
Format : AC-3
Format/Info : Audio Coding 3
Codec ID : A_AC3
Duration : 1 h 40 min
Bit rate mode : Constant
Bit rate : 384 kb/s
Channel(s) : 6 channels
Channel positions : Front: L C R, Side: L R, LFE
Sampling rate : 48.0 kHz
Frame rate : 31.250 FPS (1536 SPF)
Bit depth : 16 bits
Compression mode : Lossy
Stream size : 275 MiB (18%)
Title : Дубляж (iTunes)
Language : Russian
Service kind : Complete Main
Default : Yes
Forced : No
Audio #2
ID : 3
Format : AC-3
Format/Info : Audio Coding 3
Codec ID : A_AC3
Duration : 1 h 40 min
Bit rate mode : Constant
Bit rate : 384 kb/s
Channel(s) : 6 channels
Channel positions : Front: L C R, Side: L R, LFE
Sampling rate : 48.0 kHz
Frame rate : 31.250 FPS (1536 SPF)
Bit depth : 16 bits
Compression mode : Lossy
Stream size : 275 MiB (18%)
Title : Original
Language : English
Service kind : Complete Main
Default : No
Forced : No
Text #1
ID : 4
Format : UTF-8
Codec ID : S_TEXT/UTF8
Codec ID/Info : UTF-8 Plain Text
Duration : 55 min 32 s
Bit rate : 1 b/s
Count of elements : 12
Stream size : 552 Bytes (0%)
Title : Форсированные
Language : Russian
Default : Yes
Forced : No
Text #2
ID : 5
Format : UTF-8
Codec ID : S_TEXT/UTF8
Codec ID/Info : UTF-8 Plain Text
Duration : 1 h 32 min
Bit rate : 88 b/s
Count of elements : 1491
Stream size : 59.9 KiB (0%)
Title : Полные
Language : Russian
Default : No
Forced : No
Text #3
ID : 6
Format : UTF-8
Codec ID : S_TEXT/UTF8
Codec ID/Info : UTF-8 Plain Text
Duration : 1 h 35 min
Bit rate : 66 b/s
Count of elements : 1862
Stream size : 46.5 KiB (0%)
Title : Full
Language : English
Default : No
Forced : No
Text #4
ID : 7
Format : UTF-8
Codec ID : S_TEXT/UTF8
Codec ID/Info : UTF-8 Plain Text
Duration : 1 h 32 min
Bit rate : 64 b/s
Count of elements : 1710
Stream size : 43.9 KiB (0%)
Title : SDH
Language : English
Default : No
Forced : No
Text #5
ID : 8
Format : UTF-8
Codec ID : S_TEXT/UTF8
Codec ID/Info : UTF-8 Plain Text
Duration : 1 h 38 min
Bit rate : 112 b/s
Count of elements : 2129
Stream size : 81.3 KiB (0%)
Title : SDH-Colored
Language : English
Default : No
Forced : No
Menu
00:00:00.000 : en:Chapter 01
00:04:39.779 : en:Chapter 02
00:08:54.408 : en:Chapter 03
00:14:10.307 : en:Chapter 04
00:17:46.482 : en:Chapter 05
00:22:38.607 : en:Chapter 06
00:28:33.002 : en:Chapter 07
00:33:45.481 : en:Chapter 08
00:37:26.702 : en:Chapter 09
00:42:16.116 : en:Chapter 10
00:48:31.533 : en:Chapter 11
00:51:24.247 : en:Chapter 12
00:56:04.736 : en:Chapter 13
01:01:12.669 : en:Chapter 14
01:05:40.311 : en:Chapter 15
01:12:03.068 : en:Chapter 16
01:16:24.496 : en:Chapter 17
01:21:07.988 : en:Chapter 18
01:27:57.939 : en:Chapter 19
01:33:40.615 : en:Chapter 20
 
Не забывайте говорить Спасибо. Не уходите с раздачи!   
Торрент: Зарегистрирован [16 апр 2018, 17:18] Для скачивания .torrent
необходима регистрация
Или скачать с помощью
MediaGet
Статус:
Проверен
 
.torrent скачан: 0 раз
Хэш: 517ab52c6579f467f97304f6c839d06d0af8c172
Размер: 1.46 ГБ (1 569 126 572 байт)
Стать Автором раздачи
 
 
Раздал: 0 байт
Скачал: 0 байт
Ратио: Inf.
Сообщения: 487468
Зарегистрирован: 17 апр 2014, 13:57


  • Похожие торренты
    Ответы
    Просмотры
    Последнее сообщение

Вернуться в Зарубежные фильмы 2016-2017 года

Ресурс не предоставляет электронные версии произведений, а занимается лишь коллекционированием и каталогизацией ссылок, присылаемых и публикуемых на форуме нашими читателями. Если вы являетесь правообладателем какого-либо представленного материала и не желаете чтобы ссылка на него находилась в нашем каталоге, свяжитесь с нами и мы незамедлительно удалим её. Файлы для обмена на трекере предоставлены пользователями сайта, и администрация не несёт ответственности за их содержание. Просьба не заливать файлы, защищенные авторскими правами, а также файлы нелегального содержания!
cron