Люди Икс / X-Men: The Animated Series / Сезон: 1-2 (5) / Серии: 1-15, 24 из 26 (Ларри Хьюстон / Larry Houston) [1992-1993, фантастика, приключения, DVDRip] AVO (Кашкин/Первомайский) + Original

 
 Статистика раздачи 
Размер: 4.51 ГБ   |  Зарегистрирован: 16 апр 2018, 17:17   |   .torrent скачан: 0 раз
Сидеров: 1  [ 0 байт/сек ]     Личеров: 0  [ 0 байт/сек ]  
  

Люди Икс / X-Men: The Animated Series / Сезон: 1-2 (5) / Серии: 1-15, 24 из 26 (Ларри Хьюстон / Larry Houston) [1992-1993, фантастика, приключения, DVDRip] AVO (Кашкин/Первомайский) + Original

Сообщение Nakazhu » 16 апр 2018, 17:17

Люди Икс
X-Men: The Animated Series

Страна: США, Канада
Жанр: Мультсериал, фантастика, приключения
Продолжительность: 5:40:38 (16 серий х 21 мин.)
Год выпуска: 1992-1993
Перевод: Авторский (одноголосый закадровый: Александр Кашкин (Первомайский))
Режиссёр: Ларри Хьюстон / Larry Houston
Описание: Когда на очаровательную юную мутантку по имени Джубили нападают огромные роботы-уничтожители Сентинелы, Бродяга, Шторм и Гэмбит применяют свою сверхъестественную мощь, чтобы спасти ее. С помощью профессора Экзевиера она выясняют, что нападение Сентинелов – часть зловещего плана по уничтожению всех мутантов! Сможет ли сила всех объединившихся мутантов противостоять атаке безжалостной, смертельно вооруженной армии преследующих их Сентинелов? © почти VHS
Серии в раздаче:
#1.01: Ночь Сентиненталов, часть 1 / Night of the Sentinels, Part 1
#1.02: Ночь Сентиненталов, часть 2 / Night of the Sentinels, Part 2
#1.03: Магнито / Enter Magneto
#1.04: Смертоносные / Deadly Reunions
#1.05: Чувствительные сердца / Captive Hearts
#1.06: Холодные мстители / Cold Vengeance
#1.07: Остров Рабов / Slave Island
#1.08: Неукротимый Джаггернаут / The Unstoppable Juggernaut
#1.09: Излечение / The Cure
#1.10: Апокалипсис / Come the Apocalypse
#1.11: Дни минувшего будущего, часть 1 / Days of Future Past, Part 1
#1.12: Дни минувшего будущего, часть 2 / Days of Future Past, Part 2
#1.13: Окончательное решение / The Final Decision
#2.01: Покуда смерть нас не разлучит, часть 1 / Till Death Do Us Part, Part 1
#2.02: Покуда смерть нас не разлучит, часть 2 / Till Death Do Us Part, Part 2
...
#2.08: Моджовидение / Mojovision
Релиз:
Deman99 ... перевод Александра Первомайского (серии #1-15, 24)
paladin2017 ... перевод Александра Первомайского (серии #7-8)
Áлексис ... рип и синхронизация
Качество: DVDRip
Формат: AVI
Видео: 640x480 (1.33:1), 25.000 fps, XviD build 65 ~1500 kbps avg, 0.18 bit/pixel
Аудио #1: 48 kHz, AC3 Dolby Digital, 2/0 (stereo) ch, ~192.00 kbps avg (Первомайский) -- серии #1-6
Аудио #1: 48 kHz, AC3 Dolby Digital, 2/0 (dual-mono) ch, ~192.00 kbps avg (Первомайский) -- серии #7-8
Аудио #2: 48 kHz, AC3 Dolby Digital, 2/0 (stereo) ch, ~192.00 kbps avg (оригинал)
Субтитры:: русские, форсированные | .srt -- для серий #2-3
General
Complete name : D:\X-Men TAS - 1x01 - Night of the Sentinels (1) [AVO+Eng] [FilmStore Group].avi
Format : AVI
Format/Info : Audio Video Interleave
File size : 288 MiB
Duration : 21 min 16 s
Overall bit rate : 1 892 kb/s
Writing application : VirtualDubMod 1.5.10.2 (build 2540/release)
Writing library : VirtualDubMod build 2540/release
Video
ID : 0
Format : MPEG-4 Visual
Format profile : Advanced Simple@L5
Format settings : BVOP2 / Custom Matrix
Format settings, BVOP : 2
Format settings, QPel : No
Format settings, GMC : No warppoints
Format settings, Matrix : Custom
Codec ID : XVID
Codec ID/Hint : XviD
Duration : 21 min 16 s
Bit rate : 1 494 kb/s
Width : 640 pixels
Height : 480 pixels
Display aspect ratio : 4:3
Frame rate : 25.000 FPS
Color space : YUV
Chroma subsampling : 4:2:0
Bit depth : 8 bits
Scan type : Progressive
Compression mode : Lossy
Bits/(Pixel*Frame) : 0.195
Stream size : 227 MiB (79%)
Writing library : XviD 65
Audio #1
ID : 1
Format : AC-3
Format/Info : Audio Coding 3
Codec ID : 2000
Duration : 21 min 16 s
Bit rate mode : Constant
Bit rate : 192 kb/s
Channel(s) : 2 channels
Channel positions : Front: L R
Sampling rate : 48.0 kHz
Frame rate : 31.250 FPS (1536 SPF)
Bit depth : 16 bits
Compression mode : Lossy
Stream size : 29.2 MiB (10%)
Alignment : Split accross interleaves
Interleave, duration : 40 ms (1.00 video frame)
Interleave, preload duratio : 500 ms
Service kind : Complete Main
Audio #2
ID : 2
Format : AC-3
Format/Info : Audio Coding 3
Codec ID : 2000
Duration : 21 min 16 s
Bit rate mode : Constant
Bit rate : 192 kb/s
Channel(s) : 2 channels
Channel positions : Front: L R
Sampling rate : 48.0 kHz
Frame rate : 31.250 FPS (1536 SPF)
Bit depth : 16 bits
Compression mode : Lossy
Stream size : 29.2 MiB (10%)
Alignment : Split accross interleaves
Interleave, duration : 40 ms (1.00 video frame)
Interleave, preload duratio : 500 ms
Service kind : Complete Main

 
Не забывайте говорить Спасибо. Не уходите с раздачи!   
Торрент: Зарегистрирован [16 апр 2018, 17:17] Скачать торрент
Скачать торрент
[ Размер 24.76 КБ / Просмотров 5 ]
Статус:
Проверен
 
.torrent скачан: 0 раз
Хэш: 592922d63a95cc4c40cf708e99e8e17a9490a5d8
Размер: 4.51 ГБ (4 839 438 467 байт)
Стать Автором раздачи
 
 
Раздал: 0 байт
Скачал: 0 байт
Ратио: Inf.
Сообщения: 487468
Зарегистрирован: 17 апр 2014, 13:57


  • Похожие торренты
    Ответы
    Просмотры
    Последнее сообщение

Вернуться в Мультсериалы

Ресурс не предоставляет электронные версии произведений, а занимается лишь коллекционированием и каталогизацией ссылок, присылаемых и публикуемых на форуме нашими читателями. Если вы являетесь правообладателем какого-либо представленного материала и не желаете чтобы ссылка на него находилась в нашем каталоге, свяжитесь с нами и мы незамедлительно удалим её. Файлы для обмена на трекере предоставлены пользователями сайта, и администрация не несёт ответственности за их содержание. Просьба не заливать файлы, защищенные авторскими правами, а также файлы нелегального содержания!
cron