Губернатор (Андрей Могучий) [2017, Драма, WEB-DLRip, AVC] Большой драматический театр им. Г.А. Товстоногова, Санкт-Петербург

 
 Статистика раздачи 
Размер: 688.46 МБ   |  Зарегистрирован: 15 апр 2018, 23:27   |   .torrent скачан: 0 раз
Сидеров: 1  [ 0 байт/сек ]     Личеров: 0  [ 0 байт/сек ]  
  

Губернатор (Андрей Могучий) [2017, Драма, WEB-DLRip, AVC] Большой драматический театр им. Г.А. Товстоногова, Санкт-Петербург

Сообщение Nakazhu » 15 апр 2018, 23:27

Губернатор
Название театра: Большой драматический театр им. Г.А. Товстоногова, Санкт-Петербург
Жанр: Драма
Год выпуска: 2017
Продолжительность: 01:53:00
Режиссёр: Андрей Могучий
В ролях: Геннадий Богачев, Руслан Барабанов, Максим Бравцов, Ольга Ванькова, Дмитрий Воробьев, Валерий Дегтярь, Полина Дудкина, Алиса Комарецкая, Александр Кононец, Сергей Лосев, Александра Магелатова, Егор Медведев, Рустам Насыров, Елена Осипова, Ирина Патракова, Анатолий Петров, Аграфена Петровская, Василий Реутов, Мария Сандлер, Андрей Феськов, Ульяна Фомичева, Елена Шварева, Диана Шишляева, Георгий Штиль
Описание: «Губернатор» выстроен в логике сна, наваждения… Могучего не интересует жизнеподобие – не случайно в прологе зрители наблюдают за театральной кухней, за гримерами, подкрашивающими артистов прямо на сцене. Густой серый грим персонажей «Губернатора» не дает забыть о том, что все они, в сущности, не вполне люди. Спасение от дегуманизации, по Могучему, – в сострадании.
газета «Ведомости. Санкт-Петербург»
Доп. информация:
Театральный фестиваль "Золотая маска" 2018 г.
Качество видео: WEB-DLRip
Формат видео: MP4
Видео: AVC 1024x576 16:9 25.000 FPS 709 kb/s
Аудио: MPEG 44.1 kHz 128 kb/s 2 channels
General
Complete name : Gubernator.mp4
Format : MPEG-4
Format profile : Base Media
Codec ID : isom (mp41/avc1)
File size : 688 MiB
Duration : 1 h 53 min
Overall bit rate : 844 kb/s
Encoded date : UTC 2018-04-15 10:43:41
Tagged date : UTC 2018-04-15 10:43:41
Writing application : vlc 3.0.1 stream output
Video
ID : 2
Format : AVC
Format/Info : Advanced Video Codec
Format profile : High@L3.1
Format settings : CABAC / 4 Ref Frames
Format settings, CABAC : Yes
Format settings, ReFrames : 4 frames
Codec ID : avc1
Codec ID/Info : Advanced Video Coding
Duration : 1 h 53 min
Bit rate : 709 kb/s
Width : 1 024 pixels
Height : 578 pixels
Original height : 576 pixels
Display aspect ratio : 16:9
Frame rate mode : Constant
Frame rate : 25.000 FPS
Color space : YUV
Chroma subsampling : 4:2:0
Bit depth : 8 bits
Scan type : Progressive
Bits/(Pixel*Frame) : 0.048
Stream size : 578 MiB (84%)
Writing library : x264 core 148
Encoding settings : cabac=1 / ref=3 / deblock=1:0:0 / analyse=0x3:0x13 / me=hex / subme=7 / psy=1 / psy_rd=1.00:0.00 / mixed_ref=1 / me_range=16 / chroma_me=1 / trellis=1 / 8x8dct=1 / cqm=0 / deadzone=21,11 / fast_pskip=1 / chroma_qp_offset=-2 / threads=6 / lookahead_threads=1 / sliced_threads=0 / nr=0 / decimate=1 / interlaced=0 / bluray_compat=0 / constrained_intra=0 / bframes=3 / b_pyramid=2 / b_adapt=1 / b_bias=0 / direct=1 / weightb=1 / open_gop=0 / weightp=2 / keyint=250 / keyint_min=25 / scenecut=40 / intra_refresh=0 / rc_lookahead=40 / rc=crf / mbtree=1 / crf=23.0 / qcomp=0.60 / qpmin=10 / qpmax=51 / qpstep=4 / ip_ratio=1.40 / aq=1:1.00
Language : English
Encoded date : UTC 2018-04-15 10:43:41
Tagged date : UTC 2018-04-15 10:43:41
Audio
ID : 1
Format : MPEG Audio
Format version : Version 1
Format profile : Layer 2
Codec ID : mp4a-6B
Duration : 1 h 53 min
Source duration : 1 h 53 min
Bit rate mode : Constant
Bit rate : 128 kb/s
Channel(s) : 2 channels
Sampling rate : 44.1 kHz
Compression mode : Lossy
Stream size : 104 MiB (15%)
Source stream size : 104 MiB (15%)
Language : English
Encoded date : UTC 2018-04-15 10:43:41
Tagged date : UTC 2018-04-15 10:43:41



 
Не забывайте говорить Спасибо. Не уходите с раздачи!   
Торрент: Зарегистрирован [15 апр 2018, 23:27] Для скачивания .torrent
необходима регистрация
Или скачать с помощью
MediaGet
Статус:
Проверен
 
.torrent скачан: 0 раз
Хэш: dd26c85e33219c8a973868da4616fcfd76a0206f
Размер: 688.46 МБ (721 900 915 байт)
Стать Автором раздачи
 
 
Раздал: 0 байт
Скачал: 0 байт
Ратио: Inf.
Сообщения: 439460
Зарегистрирован: 17 апр 2014, 13:57


  • Похожие торренты
    Ответы
    Просмотры
    Последнее сообщение

Вернуться в Театр

Ресурс не предоставляет электронные версии произведений, а занимается лишь коллекционированием и каталогизацией ссылок, присылаемых и публикуемых на форуме нашими читателями. Если вы являетесь правообладателем какого-либо представленного материала и не желаете чтобы ссылка на него находилась в нашем каталоге, свяжитесь с нами и мы незамедлительно удалим её. Файлы для обмена на трекере предоставлены пользователями сайта, и администрация не несёт ответственности за их содержание. Просьба не заливать файлы, защищенные авторскими правами, а также файлы нелегального содержания!
cron