Вера святых [2004, торжество Православия, TVRip]

 
 Статистика раздачи 
Размер: 4.24 ГБ   |  Зарегистрирован: 15 апр 2018, 22:41   |   .torrent скачан: 0 раз
Сидеров: 1  [ 0 байт/сек ]     Личеров: 0  [ 0 байт/сек ]  
  

Вера святых [2004, торжество Православия, TVRip]

Сообщение Nakazhu » 15 апр 2018, 22:41

Вера святых
Дата/Год выпуска: 2004
Страна
: Россия
Жанр: торжество Православия
Продолжительность: 33 x ~ 00:11:00
Перевод: Не требуется
Русские субтитры: нет
Оригинальная аудиодорожка: русский
Описание: Серия фильмов "Вера святых" включает тридцать три 10-ти минутных сюжета об основах вероучения Православной Церкви.
Текст фильмов составлен из трудов святителя Филарета митрополита Московского (Дроздова) и святителя Николая Сербского. Фильм по своему содержанию и яркому впечатляющему видеоматериалу интересен и полезен не только новоначальным, делающим первые шаги в Церкви, но и людям давно и крепко связавшим свою жизнь с Православной Церковью.
Серию фильмов рекомендуется использовать также для занятий в Воскресных школах и на уроках основ Православной культуры в общеобразовательных школах.
качество: TVRip
формат: AVI
Видео: MPEG4, DivX 5, 704x528 (4:3), 25.000 fps, 1 600 Kbps (0.172 bit/pixel)
Аудио: MP3, 48.0 KHz, 2 ch, 192 Kbps, CBR
01. Что такое вера
02. Вера как откровение. Библия и предание
03. Ветхий Завет. Закон. История. Пророки
04. Новый Завет
05. Священное предание. Жизнь в Боге. Церковь
06. Символ веры и его происхождение. Вселенские соборы
07. Бог Отец. Творец. Создатель
08. Сотворение мира
09. Иисус Христос - Сын Божий, Спаситель
10. Сошествие с небес. Воплощение. Богородица
11. Распятие. Крестная жертва. Искупление
12. Воскресение Христово
13. Восшествие на небеса
14. Второе Пришествие. Последний Суд. Царство Небесное
15. Бог Святой Дух
16. Церковь Единая, Святая, Соборная, Апостольская
17. Крещение во оставление грехов
18. Всеобщее Воскресение из мертвых
19. Вечная жизнь
20. Таинства. Крещение. Миропомазание
21. Таинство причащения
22. Таинство покаяния
23. Таинство священства
24. Таинство брака
25. Таинство елеосвящения
26. Заповеди Божии. Синайское Откровение
27. Первая заповедь. Возлюби Господа Бога
28. Вторая заповедь. Не сотвори себе кумира
29. Третья заповедь. Не произноси имени Господа Бога напрасно
30. Четвёртая заповедь. Священный день покоя
31. Пятая заповедь. Почитание родителей
32. Шестая заповедь. Не убей
33. Седьмая заповедь. Не прелюбодействуй
Код: Выделить всё
General
Complete name                            : C:\Users\User\Downloads\Вера святых\01. Что такое вера.avi
Format                                   : AVI
Format/Info                              : Audio Video Interleave
File size                                : 139 MiB
Duration                                 : 10mn 46s
Overall bit rate                         : 1 802 Kbps
Video
ID                                       : 0
Format                                   : MPEG-4 Visual
Format settings, BVOP                    : 1
Format settings, QPel                    : No
Format settings, GMC                     : No warppoints
Format settings, Matrix                  : Default (H.263)
Codec ID                                 : DX50
Codec ID/Hint                            : DivX 5
Duration                                 : 10mn 46s
Bit rate                                 : 1 600 Kbps
Width                                    : 704 pixels
Height                                   : 528 pixels
Display aspect ratio                     : 4:3
Frame rate                               : 25.000 fps
Color space                              : YUV
Chroma subsampling                       : 4:2:0
Bit depth                                : 8 bits
Scan type                                : Progressive
Compression mode                         : Lossy
Bits/(Pixel*Frame)                       : 0.172
Stream size                              : 123 MiB (89%)
Title                                    : Main
Writing library                          : DivX 6.2.5 (UTC 2006-07)
Audio
ID                                       : 1
Format                                   : MPEG Audio
Format version                           : Version 1
Format profile                           : Layer 3
Mode                                     : Joint stereo
Mode extension                           : MS Stereo
Codec ID                                 : 55
Codec ID/Hint                            : MP3
Duration                                 : 10mn 46s
Bit rate mode                            : Constant
Bit rate                                 : 192 Kbps
Channel(s)                               : 2 channels
Sampling rate                            : 48.0 KHz
Compression mode                         : Lossy
Stream size                              : 14.8 MiB (11%)
Alignment                                : Split accross interleaves
Interleave, duration                     : 40 ms (1.00 video frame)
Interleave, preload duration             : 500 ms
Title                                    : Audio
 
Не забывайте говорить Спасибо. Не уходите с раздачи!   
Торрент: Зарегистрирован [15 апр 2018, 22:41] Для скачивания .torrent
необходима регистрация
Или скачать с помощью
MediaGet
Статус:
Проверен
 
.torrent скачан: 0 раз
Хэш: 422724cd4c53b63ea163b606664b8a89c6816585
Размер: 4.24 ГБ (4 556 959 734 байт)
Стать Автором раздачи
 
 
Раздал: 0 байт
Скачал: 0 байт
Ратио: Inf.
Сообщения: 486736
Зарегистрирован: 17 апр 2014, 13:57


  • Похожие торренты
    Ответы
    Просмотры
    Последнее сообщение

Вернуться в Вера и религия (видео)

Ресурс не предоставляет электронные версии произведений, а занимается лишь коллекционированием и каталогизацией ссылок, присылаемых и публикуемых на форуме нашими читателями. Если вы являетесь правообладателем какого-либо представленного материала и не желаете чтобы ссылка на него находилась в нашем каталоге, свяжитесь с нами и мы незамедлительно удалим её. Файлы для обмена на трекере предоставлены пользователями сайта, и администрация не несёт ответственности за их содержание. Просьба не заливать файлы, защищенные авторскими правами, а также файлы нелегального содержания!
cron