О проблемах молодежи, о выборе жениха, невесты [2013, торжество Православия, DVDRip]

 
 Статистика раздачи 
Размер: 1.26 ГБ   |  Зарегистрирован: 15 апр 2018, 21:40   |   .torrent скачан: 0 раз
Сидеров: 1  [ 0 байт/сек ]     Личеров: 0  [ 0 байт/сек ]  
  

О проблемах молодежи, о выборе жениха, невесты [2013, торжество Православия, DVDRip]

Сообщение Nakazhu » 15 апр 2018, 21:40

О проблемах молодежи, о выборе жениха, невесты
Дата/Год выпуска: 2013
Страна
: Россия
Жанр: торжество Православия
Продолжительность: 01:58:04
Перевод: Не требуется
Русские субтитры: нет
Оригинальная аудиодорожка: русский
Описание: В Покровском храме в Ясенево прошла встреча игумена Мелхисидека (Артюхина) с молодежью. На беседу с игуменом Мелхиседеком (Артюхиным) собралось более 150 молодых людей.
3 марта 2013 года в храме Покрова Пресвятой Богородицы в Ясеневе прошла беседа с игуменом Мелхиседеком (Артюхиным), настоятелем Покровского храма и подворья монастыря Оптина Пустынь в Москве.
На беседу «О счастье семейной жизни, или на пути к браку» собралось более 150 молодых людей из различных приходов города Москвы.
Отец Мелхиседек выбрал данную тему неслучайно, так как более 10 лет является духовником православного молодежного братства "Покров", в котором во многом благодаря молитвам, трудам и советам батюшек, окормляющих «молодежку», родилось около 40 семейных пар.
качество: DVDRip
формат: AVI
Видео: MPEG4, XviD, 720x416 (16:9), 25.000 fps, 66.1 Kbps (0.009 bit/pixel)
Аудио: MPEG Audio, 48.0 KHz, 2 ch, 160 Kbps
Код: Выделить всё
General
Complete name                            : C:\Users\User\Downloads\О проблемах молодежи, о выборе жениха, невесты .avi
Format                                   : AVI
Format/Info                              : Audio Video Interleave
File size                                : 1.26 GiB
Duration                                 : 1h 58mn
Overall bit rate                         : 1 526 Kbps
Movie name                               : О проблемах молодежи, о выборе жениха, невесты
Video
ID                                       : 0
Format                                   : MPEG-4 Visual
Format profile                           : Advanced Simple@L5
Format settings, BVOP                    : 1
Format settings, QPel                    : No
Format settings, GMC                     : No warppoints
Format settings, Matrix                  : Default (H.263)
Codec ID                                 : XVID
Codec ID/Hint                            : XviD
Duration                                 : 1h 58mn
Bit rate                                 : 1 353 Kbps
Width                                    : 720 pixels
Height                                   : 416 pixels
Display aspect ratio                     : 1.731
Frame rate                               : 25.000 fps
Color space                              : YUV
Chroma subsampling                       : 4:2:0
Bit depth                                : 8 bits
Scan type                                : Progressive
Compression mode                         : Lossy
Bits/(Pixel*Frame)                       : 0.181
Stream size                              : 1.12 GiB (89%)
Writing library                          : XviD 64
Audio
ID                                       : 1
Format                                   : MPEG Audio
Format version                           : Version 1
Format profile                           : Layer 3
Mode                                     : Joint stereo
Mode extension                           : MS Stereo
Codec ID                                 : 55
Codec ID/Hint                            : MP3
Duration                                 : 1h 58mn
Bit rate mode                            : Constant
Bit rate                                 : 160 Kbps
Channel(s)                               : 2 channels
Sampling rate                            : 48.0 KHz
Compression mode                         : Lossy
Delay relative to video                  : 40ms
Stream size                              : 135 MiB (10%)
Alignment                                : Aligned on interleaves
Interleave, duration                     : 24 ms (0.60 video frame)
Interleave, preload duration             : 504 ms
Writing library                          : LAME3.99
 
Не забывайте говорить Спасибо. Не уходите с раздачи!   
Торрент: Зарегистрирован [15 апр 2018, 21:40] Скачать торрент
Скачать торрент
[ Размер 13.1 КБ / Просмотров 4 ]
Статус:
Проверен
 
.torrent скачан: 0 раз
Хэш: f42dd5e5de04c54ca4e14d9eb9a8b5c6f5369af8
Размер: 1.26 ГБ (1 351 581 096 байт)
Стать Автором раздачи
 
 
Раздал: 0 байт
Скачал: 0 байт
Ратио: Inf.
Сообщения: 487468
Зарегистрирован: 17 апр 2014, 13:57


  • Похожие торренты
    Ответы
    Просмотры
    Последнее сообщение

Вернуться в Вера и религия (видео)

Ресурс не предоставляет электронные версии произведений, а занимается лишь коллекционированием и каталогизацией ссылок, присылаемых и публикуемых на форуме нашими читателями. Если вы являетесь правообладателем какого-либо представленного материала и не желаете чтобы ссылка на него находилась в нашем каталоге, свяжитесь с нами и мы незамедлительно удалим её. Файлы для обмена на трекере предоставлены пользователями сайта, и администрация не несёт ответственности за их содержание. Просьба не заливать файлы, защищенные авторскими правами, а также файлы нелегального содержания!
cron