Нарутару / Narutaru: Mukuro Naru Hoshi Tama Taru Ko / Shadow Star Narutaru (Иино Тосиаки) [TV][13 из 13][2003, драма, мистика, ужасы, сэйнэн, DVDRip][Субтитры]

 
 Статистика раздачи 
Размер: 1.44 ГБ   |  Зарегистрирован: 15 апр 2018, 17:31   |   .torrent скачан: 0 раз
Сидеров: 1  [ 0 байт/сек ]     Личеров: 0  [ 0 байт/сек ]  
  

Нарутару / Narutaru: Mukuro Naru Hoshi Tama Taru Ko / Shadow Star Narutaru (Иино Тосиаки) [TV][13 из 13][2003, драма, мистика, ужасы, сэйнэн, DVDRip][Субтитры]

Сообщение Nakazhu » 15 апр 2018, 17:31


Нарутару

Оригинальное название: Narutaru: Mukuro Naru Hoshi Tama Taru Ko
Английское название: Shadow Star Narutaru
Период трансляции: c 08.07.2003 по 30.09.2003
Страна: Япония
Жанр: драма, мистика, ужасы, сэйнэн
Продолжительность: 13 эп., ~25 мин.
Перевод: Субтитры (Drizzt De'Uorden / Miyakawa Yukio)
Режиссер: Иино Тосиаки
Студия:
Описание: Дочь лётчика-испытателя Сиина Тамаи, добрая, общительная и храбрая девочка, прилетает на каникулы к бабушке и дедушке, живущим на дальнем островке. На дне бухты она находит странное создание, формой напоминающее большую симпатичную морскую звезду. Девочка даёт ему имя Хосимару (т.е. "круглая звезда") и берёт с собой в город, благо Хосимару обычно флегматичен и с лёгкостью может сойти за мягкую игрушку или забавный рюкзак. Но так ли прост неведомый пришелец? К тому же в городе внезапно выясняется, что у странного существа есть сородичи, связанные с другими людьми, и не все они выглядят столь доброжелательными. Притом армия не дремлет, власти скрывают, заговоры зреют, атмосфера сгущается... Удастся ли героям сохранить жизнь и рассудок перед лицом творящегося зла, неизъяснимого - и вполне человеческого? Сумеет ли Сиина защитить близких ей людей?
Доп. информация: Сериал снят по одноимённой манге Кито Мохиро.
В использованных субтитрах исправлена основная масса орфографических и пунктуационных ошибок и опечаток, устранён ряд неточностей и англицизмов; стиль и содержание перевода в целом изменению не подвергались.
1. Оно в форме звезды
2. Несчастье средь бела дня
3. Чёрный - номер 1
4. Тень детского следа
5. Игра ангела
6. Его слова были правдой
7. Аромат цветов для тех, кто сражается, и для тех, кто умирает...
8. Не закрывай глаза
9. Жизнь рыбы. Жизнь человека
10. То, что я могу сделать для тебя сейчас
11. Невидимый горизонт
12. Мои глаза - глаза жертвы. Мои руки - руки обидчика
13. То, чем мы награждаем детей будущего
Качество видео: DVDRip
Формат: MP4
Видео кодек: H.264
Аудио кодек: AAC
Видео: MPEG4 Video (H264) 368x272 23.97fps 473kbps
Аудио: AAC 48000Hz stereo 158kbps
Format : MPEG-4
Format profile : Base Media
Codec ID : isom (isom/avc1/iso6)
File size : 113 MiB
Duration : 24 min 49 s
Overall bit rate mode : Variable
Overall bit rate : 635 kb/s
Video
ID : 1
Format : AVC
Format/Info : Advanced Video Codec
Format profile : Main@L3
Format settings : CABAC / 3 Ref Frames
Format settings, CABAC : Yes
Format settings, ReFrames : 3 frames
Codec ID : avc1
Codec ID/Info : Advanced Video Coding
Duration : 24 min 49 s
Bit rate : 468 kb/s
Maximum bit rate : 2 090 kb/s
Width : 368 pixels
Height : 272 pixels
Display aspect ratio : 4:3
Frame rate mode : Constant
Frame rate : 29.970 (30000/1001) FPS
Original frame rate : 29.970 (29970/1000) FPS
Color space : YUV
Chroma subsampling : 4:2:0
Bit depth : 8 bits
Scan type : Progressive
Bits/(Pixel*Frame) : 0.156
Stream size : 84.1 MiB (75%)
Title : 264@GPAC0.5.2-DEV-rev248-g39d5978-master
Writing library : x264 core 146 r2538 121396c
Encoding settings : cabac=1 / ref=3 / deblock=1:0:0 / analyse=0x1:0x111 / me=hex / subme=5 / psy=1 / psy_rd=1.00:0.00 / mixed_ref=1 / me_range=16 / chroma_me=1 / trellis=1 / 8x8dct=0 / cqm=0 / deadzone=21,11 / fast_pskip=1 / chroma_qp_offset=0 / threads=6 / lookahead_threads=1 / sliced_threads=0 / nr=0 / decimate=1 / interlaced=0 / bluray_compat=0 / constrained_intra=0 / bframes=3 / b_pyramid=0 / b_adapt=1 / b_bias=0 / direct=1 / weightb=1 / open_gop=0 / weightp=2 / keyint=250 / keyint_min=25 / scenecut=40 / intra_refresh=0 / rc_lookahead=30 / rc=abr / mbtree=1 / bitrate=468 / ratetol=1.0 / qcomp=0.60 / qpmin=0 / qpmax=69 / qpstep=4 / ip_ratio=1.40 / aq=1:1.00
Audio
ID : 2
Format : AAC
Format/Info : Advanced Audio Codec
Format profile : LC
Codec ID : mp4a-40-2
Duration : 24 min 49 s
Bit rate mode : Variable
Bit rate : 158 kb/s
Maximum bit rate : 181 kb/s
Channel(s) : 2 channels
Channel positions : Front: L R
Sampling rate : 48.0 kHz
Frame rate : 46.875 FPS (1024 SPF)
Compression mode : Lossy
Stream size : 28.1 MiB (25%)
 
Не забывайте говорить Спасибо. Не уходите с раздачи!   
Торрент: Зарегистрирован [15 апр 2018, 17:31] Для скачивания .torrent
необходима регистрация
Или скачать с помощью
MediaGet
Статус:
Проверен
 
.torrent скачан: 0 раз
Хэш: 813e03de7a509206fd16cf8a0919b426f48b4c76
Размер: 1.44 ГБ (1 547 837 123 байт)
Стать Автором раздачи
 
 
Раздал: 0 байт
Скачал: 0 байт
Ратио: Inf.
Сообщения: 487468
Зарегистрирован: 17 апр 2014, 13:57


  • Похожие торренты
    Ответы
    Просмотры
    Последнее сообщение

Вернуться в Аниме для PSP

Ресурс не предоставляет электронные версии произведений, а занимается лишь коллекционированием и каталогизацией ссылок, присылаемых и публикуемых на форуме нашими читателями. Если вы являетесь правообладателем какого-либо представленного материала и не желаете чтобы ссылка на него находилась в нашем каталоге, свяжитесь с нами и мы незамедлительно удалим её. Файлы для обмена на трекере предоставлены пользователями сайта, и администрация не несёт ответственности за их содержание. Просьба не заливать файлы, защищенные авторскими правами, а также файлы нелегального содержания!
cron