Variola vera (Натуральная оспа) / Variola vera (Горан Маркович/Goran Markovic) [1982, Югославия, Драма, хоррор, DVDRip] VO (Олег Воротилин)

 
 Статистика раздачи 
Размер: 750.05 МБ   |  Зарегистрирован: 15 апр 2018, 09:47   |   .torrent скачан: 0 раз
Сидеров: 1  [ 0 байт/сек ]     Личеров: 0  [ 0 байт/сек ]  
  

Variola vera (Натуральная оспа) / Variola vera (Горан Маркович/Goran Markovic) [1982, Югославия, Драма, хоррор, DVDRip] VO (Олег Воротилин)

Сообщение Nakazhu » 15 апр 2018, 09:47

Variola vera (Натуральная оспа) / Variola vera
Страна: Югославия
Жанр: Драма, хоррор
Год выпуска: 1982
Продолжительность: 01:44:08
Перевод: Одноголосый закадровый Олег Воротилин по субтитрам Antonio Salazar
Субтитры: нет
Оригинальная аудиодорожка: нет
Режиссер: Горан Маркович/Goran Markovic
В ролях: Раде Шербеджия, Эрланд Йозефсон, Душица Жегарац, Раде Маркович, Варя Джукич
Описание: Паломник, вернувшийся с Хаджа, привозит с собой смертельную болезнь - оспу (Variola vera) . Положение осложняется тем, что оспа долго время считалась побежденной болезнью - мало кто может ее диагностировать и никто не может ее вылечить. Власти принимают меры со значительным промедлением. Люди в закрытой на карантин больнице, оказавшись наедине с болезнью, показывают свое истинное лицо...
Фильм основан на реальных событиях эпидемии оспы в Югославии в 1972 году.
Доп. информация: http://www.imdb.com/title/tt0083275/
Сэмпл: https://yadi.sk/i/Yx1nVUEA3URHeZ
Качество видео: DVDRip
Формат видео: AVI
Видео: XviD, 640x384 (1.66:1), 25 fps, 805 kbps, 0.131 bit/pixel
Аудио: 48 kHz, AC-3, 2 ch, 192 kbps
Код: Выделить всё
Общее
Полное имя                               : E:\Видео\Релизы\Вариола вера\Variola-vera (1982).avi
Формат                                   : AVI
Формат/Информация                        : Audio Video Interleave
Размер файла                             : 750 Мбайт
Продолжительность                        : 1 ч. 44 м.
Общий поток                              : 1007 Кбит/сек
Видео
Идентификатор                            : 0
Формат                                   : MPEG-4 Visual
Профиль формата                          : Simple@L3
Параметр BVOP формата                    : 1
Параметр QPel формата                    : Нет
Параметр GMC формата                     : Без точки перехода
Параметр матрицы формата                 : Default (H.263)
Идентификатор кодека                     : XVID
Идентификатор кодека/Подсказка           : XviD
Продолжительность                        : 1 ч. 44 м.
Битрейт                                  : 805 Кбит/сек
Ширина                                   : 640 пикселей
Высота                                   : 384 пикселя
Соотношение сторон                       : 5:3
Частота кадров                           : 25,000 кадров/сек
Цветовое пространство                    : YUV
Субдискретизация насыщенности            : 4:2:0
Битовая глубина                          : 8 бит
Тип развёртки                            : Прогрессивная
Метод сжатия                             : С потерями
Бит/(Пиксели*Кадры)                      : 0.131
Размер потока                            : 600 Мбайт (80%)
Библиотека кодирования                   : XviD 1.1.0 Beta2 (UTC 2005-04-04)
Аудио
Идентификатор                            : 1
Формат                                   : AC-3
Формат/Информация                        : Audio Coding 3
Расширение режима                        : CM (complete main)
Параметр Endianness формата              : Big
Идентификатор кодека                     : 2000
Продолжительность                        : 1 ч. 44 м.
Вид битрейта                             : Постоянный
Битрейт                                  : 192 Кбит/сек
Каналы                                   : 2 канала
Расположение каналов                     : Front: L R
Частота                                  : 48,0 КГц
Частота кадров                           : 31,250 кадров/сек (1536 spf)
Битовая глубина                          : 16 бит
Метод сжатия                             : С потерями
Размер потока                            : 143 Мбайт (19%)
Выравнивание                             : Соединение по промежуткам
Продолжительность промежутка             : 40  мс. (1,00 видеокадр)
Время предзагрузки промежутка            : 512  мс.



Видеоряд и перевод взяты отсюда:
 
Не забывайте говорить Спасибо. Не уходите с раздачи!   
Торрент: Зарегистрирован [15 апр 2018, 09:47] Скачать торрент
Скачать торрент
[ Размер 15.21 КБ / Просмотров 4 ]
Статус:
Проверен
 
.torrent скачан: 0 раз
Хэш: c3afbf5dda957dc816a6d3544a63afabe61a7b8b
Размер: 750.05 МБ (786 487 164 байт)
Стать Автором раздачи
 
 
Раздал: 0 байт
Скачал: 0 байт
Ратио: Inf.
Сообщения: 487468
Зарегистрирован: 17 апр 2014, 13:57


  • Похожие торренты
    Ответы
    Просмотры
    Последнее сообщение

Вернуться в Арт-хаус и авторское кино

Ресурс не предоставляет электронные версии произведений, а занимается лишь коллекционированием и каталогизацией ссылок, присылаемых и публикуемых на форуме нашими читателями. Если вы являетесь правообладателем какого-либо представленного материала и не желаете чтобы ссылка на него находилась в нашем каталоге, свяжитесь с нами и мы незамедлительно удалим её. Файлы для обмена на трекере предоставлены пользователями сайта, и администрация не несёт ответственности за их содержание. Просьба не заливать файлы, защищенные авторскими правами, а также файлы нелегального содержания!
cron