Светлячки в саду / Fireflies in the Garden (Дэннис Ли / Dennis Lee) [2008, США, драма, DVB] [4:3] Dub

 
 Статистика раздачи 
Размер: 2.11 ГБ   |  Зарегистрирован: 15 апр 2018, 08:13   |   .torrent скачан: 0 раз
Сидеров: 1  [ 0 байт/сек ]     Личеров: 0  [ 0 байт/сек ]  
  

Светлячки в саду / Fireflies in the Garden (Дэннис Ли / Dennis Lee) [2008, США, драма, DVB] [4:3] Dub

Сообщение Nakazhu » 15 апр 2018, 08:13

Светлячки в саду / Fireflies in the Garden
Страна: США
Жанр: драма
Год выпуска: 2008
Продолжительность: 1:35:29
Перевод: Профессиональный (дублированный)
Субтитры: нет
Оригинальная аудиодорожка: нет
Режиссер: Дэннис Ли / Dennis Lee
В ролях: Райан Рейнольдс, Уиллем Дефо, Эмили Уотсон, Кэрри-Энн Мосс, Джулия Робертс, Йоан Гриффит, Хайден Панеттьери, Шеннон Лучио, Кейден Бойд, Джордж Ньюберн, Чейз Эллисон, Бруклин Пру
Описание: Проживающий в Нью-Йорке молодой литератор Майкл Тейлор посещает американскую глубинку – город и родительский дом, где прошло его детство, о котором у мужчины сохранились не самые приятные воспоминания. Главным образом, из-за напряженных, враждебных отношений с деспотичным отцом...
Однако и без того морально тяжелую для Майкла поездку к родственникам еще и многократно усугубляет внезапно произошедшая трагедия.
Может ли гибель близкого человека заставить его родных взглянуть на всё по-другому, попытаться понять и простить друг друга, найти путь к примирению? Способна ли смерть вдохнуть жизнь в начало строительства семейного согласия?
Доп. информация: Запись видео DVB-C с телеканала "Иллюзион+". Фильм транслировался без рекламы и всплывающих надписей, видео не перекодировалось.
Наполнение кадра отличается от BD и DVD (см. сравнение).
Аудиодорожка из этой раздачи http://rutracker.org/forum/viewtopic.php?t=1272519 (спасибо Stars)
Сэмпл: http://multi-up.com/1194998
Качество видео: DVB
Формат видео: MKV
Видео: MPEG Video; 720x576@768x576 (4:3); ~2777 Kbps; 25 fps
Аудио: AC3, 5.1 ch., 48 kHz, 384 kbps - русский, студия "Пифагор"
Код: Выделить всё
Общее
Уникальный идентификатор                 : 245271376620829053047521205136731174674 (0xB8858C82F97DBA27F7AE713A85747712)
Полное имя                               : D:\Torrents\Fireflies in the Garden [2008 DVB-C 4_3].mkv
Формат                                   : Matroska
Версия формата                           : Version 4 / Version 2
Размер файла                             : 2,11 Гбайт
Продолжительность                        : 1 ч. 35 м.
Режим общего битрейта                    : Переменный
Общий поток                              : 3163 Кбит/сек
Дата кодирования                         : UTC 2018-04-14 10:32:07
Программа кодирования                    : mkvmerge v19.0.0 ('Brave Captain') 32-bit
Библиотека кодирования                   : libebml v1.3.5 + libmatroska v1.4.8
Видео
Идентификатор                            : 1
Формат                                   : MPEG Video
Версия формата                           : Version 2
Профиль формата                          : Main@Main
Настройки формата                        : CustomMatrix / BVOP
Параметр BVOP формата                    : Да
Параметр матрицы формата                 : Выборочная
Параметр GOP формата                     : M=3, N=15
Структура изображения                    : Frame
Идентификатор кодека                     : V_MPEG2
Идентификатор кодека/Информация          : MPEG 1 or 2 Video
Продолжительность                        : 1 ч. 35 м.
Вид битрейта                             : Переменный
Битрейт                                  : 2776 Кбит/сек
Максимальный битрейт                     : 15,0 Мбит/сек
Ширина                                   : 720 пикселей
Высота                                   : 576 пикселей
Соотношение сторон                       : 4:3
Режим частоты кадров                     : Постоянный
Частота кадров                           : 25,000 кадров/сек
Стандарт вещания                         : PAL
Цветовое пространство                    : YUV
Субдискретизация насыщенности            : 4:2:0
Битовая глубина                          : 8 бит
Тип развёртки                            : Чересстрочная
Порядок развёртки                        : Верхнее поле первое
Метод сжатия                             : С потерями
Бит/(Пиксели*Кадры)                      : 0.268
Размер потока                            : 1,85 Гбайт (88%)
Default                                  : Да
Forced                                   : Нет
Аудио
Идентификатор                            : 2
Формат                                   : AC-3
Формат/Информация                        : Audio Coding 3
Идентификатор кодека                     : A_AC3
Продолжительность                        : 1 ч. 35 м.
Вид битрейта                             : Постоянный
Битрейт                                  : 384 Кбит/сек
Каналы                                   : 6 каналов
Расположение каналов                     : Front: L C R, Side: L R, LFE
Частота                                  : 48,0 КГц
Частота кадров                           : 31,250 кадров/сек (1536 SPF)
Битовая глубина                          : 16 бит
Метод сжатия                             : С потерями
Размер потока                            : 262 Мбайт (12%)
Язык                                     : Russian
ServiceKind/String                       : Complete Main
Default                                  : Да
Forced                                   : Нет
 
Не забывайте говорить Спасибо. Не уходите с раздачи!   
Торрент: Зарегистрирован [15 апр 2018, 08:13] Скачать торрент
Скачать торрент
[ Размер 11.13 КБ / Просмотров 4 ]
Статус:
Проверен
 
.torrent скачан: 0 раз
Хэш: 2a1654fcd1a031b46ee1e18650e84b135cf73b81
Размер: 2.11 ГБ (2 265 056 848 байт)
Стать Автором раздачи
 
 
Раздал: 0 байт
Скачал: 0 байт
Ратио: Inf.
Сообщения: 487468
Зарегистрирован: 17 апр 2014, 13:57


  • Похожие торренты
    Ответы
    Просмотры
    Последнее сообщение

Вернуться в Зарубежные фильмы 2006-2010 года

Ресурс не предоставляет электронные версии произведений, а занимается лишь коллекционированием и каталогизацией ссылок, присылаемых и публикуемых на форуме нашими читателями. Если вы являетесь правообладателем какого-либо представленного материала и не желаете чтобы ссылка на него находилась в нашем каталоге, свяжитесь с нами и мы незамедлительно удалим её. Файлы для обмена на трекере предоставлены пользователями сайта, и администрация не несёт ответственности за их содержание. Просьба не заливать файлы, защищенные авторскими правами, а также файлы нелегального содержания!
cron