Корни и кроны, Часть 5 (11 выпусков) / По городам и весям / Des Racines et des Ailes (Патрик Шарль / Patrick Charles, Жан-Люк Орабона / Jean-Luc Orabona) [2015 - 2018, путешествия, DVB] Original (Fre) + Sub (Rus, Eng, Fre, Deu)

 
 Статистика раздачи 
Размер: 32.63 ГБ   |  Зарегистрирован: 14 апр 2018, 19:49   |   .torrent скачан: 0 раз
Сидеров: 1  [ 0 байт/сек ]     Личеров: 0  [ 0 байт/сек ]  
  

Корни и кроны, Часть 5 (11 выпусков) / По городам и весям / Des Racines et des Ailes (Патрик Шарль / Patrick Charles, Жан-Люк Орабона / Jean-Luc Orabona) [2015 - 2018, путешествия, DVB] Original (Fre) + Sub (Rus, Eng, Fre, Deu)

Сообщение Nakazhu » 14 апр 2018, 19:49

По городам и весям, Часть 5
Des Racines & des Ailes
#77Дата/Год выпуска: 2015 - 2018
Страна: Франция
Жанр: документально - познавательный, путешествия
Продолжительность: 23:30:03 (12 по ~01:55:00)
Перевод: Субтитры
Доп. инфо о переводе: русский перевод Н.Шатарской, Е.Пичугиной (ECLAIR)
Русские субтитры: есть
Формат субтитров: prerendered (IDX+SUB), softsub (SRT)
Доп. информация о субтитрах: русские, немецкие, нидерландские, румынские - (IDX+SUB); английские, французские - (SRT)
Оригинальная аудиодорожка: французский
Режиссер: Патрик Шарль / Patrick Charles, Жан-Люк Орабона / Jean-Luc Orabona
Телеканал: TV5MONDE Europe
Описание: Французский документальный цикл в виде тележурнала "Корни и кроны / По городам и весям" создан Патриком де Каролисом / Patrick de Carolis и Патриком Шарлем / Patrick Charles в 1997 году. Выходит дважды в квартал по каналу France 3 с ретрансляцией по TV5. Патрик де Каролис вел программу до 2005 года, когда он был избран Президентом France Télévisions, государственного телевидения Франции. С этого времени по сегодняшний день программу ведет Луи Лафорж / Louis Laforge.
Передачи построены на двойной концепции "Соседства" и "Мировоззрения" – эпизоды журнала посвящены одной местности, выбранной авторами для показа, и включают в себя рассказы с точки зрения франкоязычного населения, осуществляющего взаимодействие и общение друг с другом и окружающим миром. В передачах помимо природных красот и географических особенностей местности освещаются события истории, культуры, искусства, социальной сферы представляемого региона.
Доп. информация: Hot Bird (13.0°E) DVB-S.
Награда: приз 7 d'Or Night 2003 за лучший телевизионный документальный цикл.
качество: DVB
формат: MKV
Видео: MPEG Video 2, 720x576@1024x576 (16:9), 25 fps, ~3100 kbps avg, 0.299 bit/pixel
Аудио: MPEG Audio 2, 2 ch, 48 kHz, 192 kbps - французский
Код: Выделить всё
01. Путешествие от Божоле до Ардеш / Des Monts du Beaujolais aux Monts d'Ardèche (2015) - [color=red][b]нет перевода последних ~20 мин[/color][/b]
02. Река Дюранс: от Альп до Прованса / Au fil de la Durance, des Hautes-Alpes à la Provence (2015)
03. В Бургундии: между Соной и Луарой / En Bourgogne, entre Saône et Loire (2016)
04. Путешествие по Савойе / A travers les pays de Savoie (2015)
05. Короли и зодчие: рождение Версаля / Rois et bâtisseurs, depuis Versailles (2017)
06. Бретань: от Ренна до полуострова Крозон / Terres de Bretagne, du pays rennais à la presqu'île de Crozon (2015)
07. Овернь: от Пюи-де-Дом до Канталя / En Auvergnen du Puy-de-Dôme au Cantal (2016)
08. Хранители сокровищь Гарда / Gardiens des trésors du Gard (2017)
09. Путь через Большие Альпы / Sur la Route des Grandes Alpes (2016)
10. С видом на Акрополь / Avec vue sur l'Acropole (2017)
11. Вверх по Сене от эстуария до Парижа / En remontant la Seine, de l'estuaire à Paris (2016)
12. Площади Парижа / Paris, de place en place (2018)
Код: Выделить всё
General
Unique ID                                : 185168095453743787052032496959691542208 (0x8B4E13F65CF148E5A42F741BFFE1CEC0)
Complete name                            : 01_Des_Monts_du_Beaujolais_aux_Monts_d'Ardeche(2015)DVB.mkv
Format                                   : Matroska
Format version                           : Version 2
File size                                : 2.75 GiB
Duration                                 : 1 h 58 min
Overall bit rate mode                    : Variable
Overall bit rate                         : 3 318 kb/s
Movie name                               : Des racines & des ailes
Released date                            : 2016-06-01
Encoded date                             : UTC 2017-09-24 10:30:13
Writing application                      : mkvmerge v15.0.0 ('Duel with the Devil') 64-bit
Writing library                          : libebml v1.3.5 + libmatroska v1.4.5
Cover                                    : Yes
Attachments                              : cover.jpg / small_cover.jpg
DIRECTOR                                 : Patrick Charles, Jean-Luc Orabona
GENRE                                    : Documentary
IMDB                                     : tt5793630
KEYWORDS                                 : rutracker.org
LAW_RATING                               : 12+
SUMMARY                                  : Des Monts du Beaujolais aux Monts d'Ardeche
Video
ID                                       : 1
Format                                   : MPEG Video
Format version                           : Version 2
Format profile                           : Main@Main
Format settings                          : BVOP
Format settings, BVOP                    : Yes
Format settings, Matrix                  : Default
Format settings, GOP                     : Variable
Format settings, picture structure       : Frame
Codec ID                                 : V_MPEG2
Codec ID/Info                            : MPEG 1 or 2 Video
Duration                                 : 1 h 58 min
Bit rate mode                            : Variable
Bit rate                                 : 3 100 kb/s
Width                                    : 720 pixels
Height                                   : 576 pixels
Display aspect ratio                     : 16:9
Frame rate mode                          : Constant
Frame rate                               : 25.000 FPS
Standard                                 : PAL
Color space                              : YUV
Chroma subsampling                       : 4:2:0
Bit depth                                : 8 bits
Scan type                                : Interlaced
Scan order                               : Top Field First
Compression mode                         : Lossy
Bits/(Pixel*Frame)                       : 0.299
Time code of first frame                 : 00:00:00:00
Time code source                         : Group of pictures header
Stream size                              : 2.57 GiB (93%)
Default                                  : Yes
Forced                                   : No
Audio
ID                                       : 2
Format                                   : MPEG Audio
Format version                           : Version 1
Format profile                           : Layer 2
Format settings                          : Joint stereo / Intensity Stereo + MS Stereo
Mode                                     : Joint stereo
Mode extension                           : Intensity Stereo + MS Stereo
Codec ID                                 : A_MPEG/L2
Codec ID/Hint                            : MP2
Duration                                 : 1 h 58 min
Bit rate mode                            : Constant
Bit rate                                 : 192 kb/s
Channel(s)                               : 2 channels
Sampling rate                            : 48.0 kHz
Frame rate                               : 41.667 FPS (1152 SPF)
Compression mode                         : Lossy
Stream size                              : 163 MiB (6%)
Language                                 : French
Default                                  : Yes
Forced                                   : No
Text #1
ID                                       : 3
Format                                   : VobSub
Codec ID                                 : S_VOBSUB
Codec ID/Info                            : Picture based subtitle format used on DVDs
Duration                                 : 1 h 35 min
Bit rate                                 : 6 718 b/s
Count of elements                        : 1375
Stream size                              : 4.61 MiB (0%)
Language                                 : Russian
Default                                  : No
Forced                                   : No
Text #2
ID                                       : 4
Format                                   : UTF-8
Codec ID                                 : S_TEXT/UTF8
Codec ID/Info                            : UTF-8 Plain Text
Duration                                 : 1 h 35 min
Bit rate                                 : 61 b/s
Count of elements                        : 1374
Stream size                              : 43.5 KiB (0%)
Language                                 : English
Default                                  : No
Forced                                   : No
Text #3
ID                                       : 5
Format                                   : UTF-8
Codec ID                                 : S_TEXT/UTF8
Codec ID/Info                            : UTF-8 Plain Text
Duration                                 : 1 h 34 min
Bit rate                                 : 83 b/s
Count of elements                        : 1373
Stream size                              : 57.8 KiB (0%)
Language                                 : French
Default                                  : No
Forced                                   : No
Text #4
ID                                       : 6
Format                                   : VobSub
Codec ID                                 : S_VOBSUB
Codec ID/Info                            : Picture based subtitle format used on DVDs
Duration                                 : 1 h 35 min
Bit rate                                 : 5 848 b/s
Count of elements                        : 1373
Stream size                              : 3.99 MiB (0%)
Language                                 : German
Default                                  : No
Forced                                   : No
Text #5
ID                                       : 7
Format                                   : VobSub
Codec ID                                 : S_VOBSUB
Codec ID/Info                            : Picture based subtitle format used on DVDs
Duration                                 : 1 h 35 min
Bit rate                                 : 5 570 b/s
Count of elements                        : 1327
Stream size                              : 3.82 MiB (0%)
Language                                 : Dutch
Default                                  : No
Forced                                   : No
Text #6
ID                                       : 8
Format                                   : VobSub
Codec ID                                 : S_VOBSUB
Codec ID/Info                            : Picture based subtitle format used on DVDs
Duration                                 : 1 h 35 min
Bit rate                                 : 4 157 b/s
Count of elements                        : 997
Stream size                              : 2.85 MiB (0%)
Language                                 : Romanian
Default                                  : No
Forced                                   : No



Внимание! Раздача ведётся путём добавления новых выпусков; при каждом добавлении создаётся новый торрент. Чтобы начать докачку нового выпуска, пользователям необходимо сделать следующее:
(1) остановить скачивание,
(2) удалить старый торрент у себя из клиента (старые серии удалять не надо),
(3) скачать новый торрент и запустить его у себя в клиенте вместо старого, при этом указать клиенту путь в старую папку куда и должно происходить скачивание новых выпусков.
Ваш клиент при этом должен произвести хеширование (проверку) старой папки (если не производит сам - помогите ему сделать это). В результате он будет докачивать только те выпуски, которых у Вас ещё нет. Старые выпуски при этом не удаляются, а продолжают раздаваться!
Eсли Вы уже удалили старые выпуски, то предотвратить их повторную закачку можно, сняв галочки в соответствующих местах при запуске нового торрента. По возможности, желательно не удалять старые выпуски как можно дольше, чтобы релизёр не только продолжал раздавать старые выпуски, но и смог сконцентрироваться на новых.

[3'888]
 
Не забывайте говорить Спасибо. Не уходите с раздачи!   
Торрент: Зарегистрирован [14 апр 2018, 19:49] Скачать торрент
Скачать торрент
[ Размер 42.24 КБ / Просмотров 4 ]
Статус:
Проверен
 
.torrent скачан: 0 раз
Хэш: e87c6e70ca54dfa3c3ca5fab29d14229a5c75a8e
Размер: 32.63 ГБ (35 035 021 335 байт)
Стать Автором раздачи
 
 
Раздал: 0 байт
Скачал: 0 байт
Ратио: Inf.
Сообщения: 487468
Зарегистрирован: 17 апр 2014, 13:57


  • Похожие торренты
    Ответы
    Просмотры
    Последнее сообщение

Вернуться в Путешествия и туризм (видео)

Ресурс не предоставляет электронные версии произведений, а занимается лишь коллекционированием и каталогизацией ссылок, присылаемых и публикуемых на форуме нашими читателями. Если вы являетесь правообладателем какого-либо представленного материала и не желаете чтобы ссылка на него находилась в нашем каталоге, свяжитесь с нами и мы незамедлительно удалим её. Файлы для обмена на трекере предоставлены пользователями сайта, и администрация не несёт ответственности за их содержание. Просьба не заливать файлы, защищенные авторскими правами, а также файлы нелегального содержания!
cron