Врата ада / Jigokumon / Gate of Hell (Тэйноскэ Кинугаса / Teinosuke Kinugasa) [1953, Япония, драма, BDRip] VO + Sub Rus, Eng + Original Jpn

 
 Статистика раздачи 
Размер: 1.46 ГБ   |  Зарегистрирован: 14 апр 2018, 12:05   |   .torrent скачан: 0 раз
Сидеров: 1  [ 0 байт/сек ]     Личеров: 0  [ 0 байт/сек ]  
  

Врата ада / Jigokumon / Gate of Hell (Тэйноскэ Кинугаса / Teinosuke Kinugasa) [1953, Япония, драма, BDRip] VO + Sub Rus, Eng + Original Jpn

Сообщение Nakazhu » 14 апр 2018, 12:05

Врата ада / Jigokumon / Gate of Hell
Страна: Япония
Жанр
: драма
Год выпуска: 1953
Продолжительность: 01:29:27
Перевод: Одноголосый закадровый
Субтитры: русские, английские
Оригинальная аудиодорожка: японский
Режиссер: Тэйноскэ Кинугаса / Teinosuke Kinugasa
В ролях: Кадзуо Хасэгава, Матико Кё, Исао Ямагата, Ятаро Курокава, Котаро Бандо, Дзюн Тадзаки, Корэя Сэнда, Масао Симидзу, Тацуя Ишигуро, Кендзиро Уэмура
Описание: По пьесе Кена Кикучи.
Историческая драма, действие которой происходит в средневековой Японии двенадцатого столетия. Во время попытки переворота, преданный сёгуну самурай помогает бежать из города придворной даме. После того, как переворот терпит неудачу, самурай просит, чтобы ему позволили жениться на этой женщине в качестве награды. Но оказывается, что она уже замужем за одним из подданных сёгуна...

Качество видео: BDRip
Формат видео
: AVI
Видео: 656x480 (1.37:1), 23.976 fps, XviD build 73 ~1999 kbps avg, 0.26 bit/pixel
Аудио: 48 kHz, AC3 Dolby Digital, 2/0 (L,R) ch, ~192 kbps - одноголосый
Аудио: 48 kHz, AC3 Dolby Digital, 1/0 (C) ch, ~128 kbps - оригинал
Формат субтитров: softsub (SRT)
Код: Выделить всё
General
Complete name               : H:\Jigokumon.1953.bdrip_[1.46]_[teko]\Jigokumon.1953.bdrip_[1.46].avi
Format                      : AVI
Format/Info                 : Audio Video Interleave
File size                   : 1.46 GiB
Duration                    : 1h 29mn
Overall bit rate            : 2 334 Kbps
Writing application         : VirtualDubMod 1.5.10.3 | www.virtualdub-fr.org || (build 2550/release)
Writing library             : VirtualDubMod build 2550/release
Video
ID                          : 0
Format                      : MPEG-4 Visual
Format profile              : Advanced Simple@L5
Format settings, BVOP       : 2
Format settings, QPel       : No
Format settings, GMC        : No warppoints
Format settings, Matrix     : Custom
Codec ID                    : XVID
Codec ID/Hint               : XviD
Duration                    : 1h 29mn
Bit rate                    : 2 000 Kbps
Width                       : 656 pixels
Height                      : 480 pixels
Display aspect ratio        : 4:3
Frame rate                  : 23.976 (23976/1000) fps
Color space                 : YUV
Chroma subsampling          : 4:2:0
Bit depth                   : 8 bits
Scan type                   : Progressive
Compression mode            : Lossy
Bits/(Pixel*Frame)          : 0.265
Stream size                 : 1.25 GiB (86%)
Writing library             : XviD 73
Audio #1
ID                          : 1
Format                      : AC-3
Format/Info                 : Audio Coding 3
Mode extension              : CM (complete main)
Format settings, Endianness : Big
Codec ID                    : 2000
Duration                    : 1h 29mn
Bit rate mode               : Constant
Bit rate                    : 192 Kbps
Channel(s)                  : 2 channels
Channel positions           : Front: L R
Sampling rate               : 48.0 KHz
Frame rate                  : 31.250 fps (1536 spf)
Compression mode            : Lossy
Stream size                 : 123 MiB (8%)
Alignment                   : Split accross interleaves
Interleave, duration        : 42 ms (1.00 video frame)
Interleave, preload duratio : 500 ms
Audio #2
ID                          : 2
Format                      : AC-3
Format/Info                 : Audio Coding 3
Mode extension              : CM (complete main)
Format settings, Endianness : Big
Codec ID                    : 2000
Duration                    : 1h 29mn
Bit rate mode               : Constant
Bit rate                    : 128 Kbps
Channel(s)                  : 1 channel
Channel positions           : Front: C
Sampling rate               : 48.0 KHz
Frame rate                  : 31.250 fps (1536 spf)
Compression mode            : Lossy
Stream size                 : 81.9 MiB (5%)
Alignment                   : Split accross interleaves
Interleave, duration        : 42 ms (1.00 video frame)
Interleave, preload duratio : 500 ms
Релиз группы:


 
Не забывайте говорить Спасибо. Не уходите с раздачи!   
Торрент: Зарегистрирован [14 апр 2018, 12:05] Для скачивания .torrent
необходима регистрация
Или скачать с помощью
MediaGet
Статус:
Проверен
 
.torrent скачан: 0 раз
Хэш: a9c8bdd94bd8910d6e0378a1056afd99a878ca46
Размер: 1.46 ГБ (1 566 082 081 байт)
Стать Автором раздачи
 
 
Раздал: 0 байт
Скачал: 0 байт
Ратио: Inf.
Сообщения: 437283
Зарегистрирован: 17 апр 2014, 13:57


  • Похожие торренты
    Ответы
    Просмотры
    Последнее сообщение

Вернуться в Арт-хаус и авторское кино

Ресурс не предоставляет электронные версии произведений, а занимается лишь коллекционированием и каталогизацией ссылок, присылаемых и публикуемых на форуме нашими читателями. Если вы являетесь правообладателем какого-либо представленного материала и не желаете чтобы ссылка на него находилась в нашем каталоге, свяжитесь с нами и мы незамедлительно удалим её. Файлы для обмена на трекере предоставлены пользователями сайта, и администрация не несёт ответственности за их содержание. Просьба не заливать файлы, защищенные авторскими правами, а также файлы нелегального содержания!
cron