Долина роз (Дмитрий Черкасов) [2011, притча, мелодрама, DVDRip]

 
 Статистика раздачи 
Размер: 2.18 ГБ   |  Зарегистрирован: 13 апр 2018, 23:12   |   .torrent скачан: 0 раз
Сидеров: 1  [ 0 байт/сек ]     Личеров: 0  [ 0 байт/сек ]  
  

Долина роз (Дмитрий Черкасов) [2011, притча, мелодрама, DVDRip]

Сообщение Nakazhu » 13 апр 2018, 23:12

ДОЛИНА РОЗ

Страна: Россия, Латвия
Жанр: притча, мелодрама
Год выпуска: 2011
Продолжительность: 01:59:03
Слоган: «Как же быстро ты живешь...»
Режиссёр: Дмитрий Черкасов
В ролях: Анатолий Белый, Юлия Снигирь, Виталий Хаев, Оксана Фандера, Роман Македонский, Борис Тенин, Иварс Пуга, Александр Горелов, Юрий Сафронов, Эдуард Пуликовский, Роман Морозов, Варвара Феофанова, Олег Тетерин
Описание: Атмосферный романтичный фильм-притча о выборе между любовью и комфортом, о хрупкости человеческих отношений.
... о том что все начинается и все заканчивается... Я думаю что это такая философская притча, скорее... (Виталий Хаев, актер)
... В этой истории... там очень много есть между строк, очень много смысла, который находится внутри сюжетных коллизий и сценарных заморочек... (Оксана Фандера, актриса)
... Об этом сейчас никто не говорит, никто не снимает — о проявлениях людей, о чем-то неуловимом, что возникает между людьми...
Как человек чувствует это?.. вот вопрос "как?" здесь главный.
Как это начинает ощущаться в человеке? Каким образом он вдруг понимает, что это — ТО САМОЕ?..
И что происходит с ним дальше — боится он этой любви своей, боится идти дальше или идет смело вперед?..
(Анатолий Белый, актер)
... Это фильм о том, что ради чего-то настоящего и большого нужно совершать поступки, нужно идти до конца. И вот наши герои, они не готовы идти до конца, не все из них. И поэтому они очень многое теряют...
Все персонажи этой истории, они по-своему несчастны. Все... Каждый из них стремится к счастью, но все они несчастны. Мне показалось, что в какой-то степени это маленькая модель нашего мира...
(Дмитрий Черкасов, режиссер)
Доп. информация:
Сценаристы: Олег Антонов, Дмитрий Черкасов
Оператор: Андрей Каторженко
Композитор: Андрей Феофанов
Художник: Айварс Жуковски
Продюсеры: Андрей Феофанов, Роман Морозов, Артём Григорьев, Сергей Новиков
Премьера:
23 ноября 2011 Польша Фестиваль российского кино "Sputnik"
9 марта 2012 (канал Израиль+)
10 июня 2012 (Россия-1)
16+
Сэмпл: https://www.sendspace.com/file/h924ek
Качество видео: DVDRip
Формат видео: AVI
Видео: XviD, 704х400, 16:9, 25 fps, 2230 kbps, 0.317 bit/pixel
Аудио: AC3, 48 kHz, 6 ch (Front: L C R, Side: L R, LFE), 384 kbps
Формат: AVI
Формат/Информация: Audio Video Interleave
Профиль формата: OpenDML
Размер файла: 2,18 Гбайт
Продолжительность: 1 ч. 59 м.
Общий поток: 2626 Кбит/сек
Библиотека кодирования: VirtualDub build 32842/release
Видео
Идентификатор: 0
Формат: MPEG-4 Visual
Профиль формата: Advanced Simple@L5
Параметр BVOP формата: 2
Параметр QPel формата: Нет
Параметр GMC формата: Без точки перехода
Параметр матрицы формата: Выборочная
Идентификатор кодека: XVID
Идентификатор кодека/Подсказка: XviD
Продолжительность: 1 ч. 59 м.
Битрейт: 2230 Кбит/сек
Ширина: 704 пикселя
Высота: 400 пикселей
Соотношение сторон: 16:9
Частота кадров: 25,000 кадров/сек
Цветовое пространство: YUV
Субдискретизация насыщенности: 4:2:0
Битовая глубина: 8 бит
Тип развёртки: Прогрессивная
Метод сжатия: С потерями
Бит/(Пиксели*Кадры): 0.317
Размер потока: 1,85 Гбайт (85%)
Библиотека кодирования : XviD 64
Аудио
Идентификатор: 1
Формат: AC-3
Формат/Информация: Audio Coding 3
Параметр Endianness формата: Big
Идентификатор кодека: 2000
Продолжительность: 1 ч. 59 м.
Вид битрейта: Постоянный
Битрейт: 384 Кбит/сек
Каналы: 6 каналов
Расположение каналов: Front: L C R, Side: L R, LFE
Частота: 48,0 КГц
Частота кадров: 31,250 кадров/сек (1536 spf)
Битовая глубина: 16 бит
Метод сжати: С потерями
Размер потока: 327 Мбайт (15%)
Выравнивание: Соединение по промежуткам
Продолжительность промежутка: 40 мс. (1,00 видеокадр)
Время предзагрузки промежутка: 512 мс.
ServiceKind/String: Complete Main


 
Не забывайте говорить Спасибо. Не уходите с раздачи!   
Торрент: Зарегистрирован [13 апр 2018, 23:12] Для скачивания .torrent
необходима регистрация
Или скачать с помощью
MediaGet
Статус:
Проверен
 
.torrent скачан: 0 раз
Хэш: cd03cff3bc9b48af4706f84120bb67e5371ef90e
Размер: 2.18 ГБ (2 345 183 524 байт)
Стать Автором раздачи
 
 
Раздал: 0 байт
Скачал: 0 байт
Ратио: Inf.
Сообщения: 487468
Зарегистрирован: 17 апр 2014, 13:57


  • Похожие торренты
    Ответы
    Просмотры
    Последнее сообщение

Вернуться в Отечественные фильмы 2011 - 2015 года

Ресурс не предоставляет электронные версии произведений, а занимается лишь коллекционированием и каталогизацией ссылок, присылаемых и публикуемых на форуме нашими читателями. Если вы являетесь правообладателем какого-либо представленного материала и не желаете чтобы ссылка на него находилась в нашем каталоге, свяжитесь с нами и мы незамедлительно удалим её. Файлы для обмена на трекере предоставлены пользователями сайта, и администрация не несёт ответственности за их содержание. Просьба не заливать файлы, защищенные авторскими правами, а также файлы нелегального содержания!
cron