Прекрасный май / Le joli mai (Крис Маркер, Пьер Ломм / Chris Marker, Pierre Lhomme) [1963, Франция, документальный, DVDRip-AVC] + Sub Rus + Original Fra

 
 Статистика раздачи 
Размер: 2.08 ГБ   |  Зарегистрирован: 13 апр 2018, 11:02   |   .torrent скачан: 0 раз
Сидеров: 1  [ 0 байт/сек ]     Личеров: 0  [ 0 байт/сек ]  
  

Прекрасный май / Le joli mai (Крис Маркер, Пьер Ломм / Chris Marker, Pierre Lhomme) [1963, Франция, документальный, DVDRip-AVC] + Sub Rus + Original Fra

Сообщение Nakazhu » 13 апр 2018, 11:02

Прекрасный май / Le joli mai
Страна: Франция
Жанр: документальный
Год выпуска: 1963
Продолжительность: 02:25:47
Перевод: Субтитры
Субтитры: русские
Оригинальная аудиодорожка: французский
Режиссер: Крис Маркер, Пьер Ломм / Chris Marker, Pierre Lhomme
В ролях: Крис Маркер/Chris Marker, Ив Монтан/Yves Montand, Симона Синьоре/Simone Signoret, парижане
Описание: «Фильм Пьера Ломма и Криса Маркера «Прекрасный май» – калейдоскоп портретов, он знакомит нас с Парижем начала 60-х через диалоги с местными жителями. Многодетная семья, наконец получившая квартиру, изобретатели, архитекторы, уличный торговец, молодая пара, брокеры, тюремная заключенная – все эти люди делятся своими заботами и мечтами. Невзирая на сводки о погибших в Алжирской войне, главным для большинства остается их частная жизнь.
В фильме нет никакой искусственности, этим он и интересен. Герои – настоящие люди, а не гипертрофированные образы. Они обычные, не идеальные. Кто-то из них глуп, кто-то труслив, кто-то наивен, кто-то циничен. Многие их взгляды, мысли, опасения, тревоги отзываются сейчас, хотя нас разделяет несколько десятилетий».
Мария Агеева
«После долгих путешествий в 1962 году Маркер вместе с оператором Пьером Ломмом решили заглянуть в зрачки родного Парижа, результатом чего стал «Прекрасный май». Чтобы разобраться, как живет центр европейского консюмеризма и левого движения, нужно, голосом Ива Монтана говорит Маркер в начале фильма, использовать методы детективных историй: телескопы и микрофоны. Постоянный спутник его фильмов до и после – закадровый голос – уступает место хору застигнутых в разгар обыденной жизни парижан, рассказывающих о своем представлении о счастье и положении Франции, теряющей Алжир, а вместе с ним и статус сильной империи. Сегодня кажется поразительным, насколько благополучные обитатели Парижа начала 1960-х годов, кутающиеся в личный комфорт, далеки от политики и с каким упорством стараются убежать от нее. Если не знать, сложно было бы, смотря эти кадры, предположить, что Эвианские соглашения были подписаны всего два месяца назад, а террористические акции OAS еще продолжаются. Маркер был прав – мечты заполняют пустоту, которая есть в каждом. Эти мечты могут принимать формы осуществимого или неосуществимого – некоторые выбирают готовые, доступные мечты. Таких людей он называл «зомби счастья». Настоящие мечты всегда больше того, что уже существует».
Алексей Артамонов. Крис Маркер: 21-12
Доп. информация: Перевод – Мария Агеева, подготовка субтитров – Влад Лазарев, Алексей Тютькин.
Сэмпл: http://multi-up.com/1194799/
Качество видео: DVDRip-AVC
Формат видео: MKV
Видео: V_MPEG4/ISO/AVC at 1849 kbps, 0.236 bit/pixel, 682x480=>808х480 at 23,976 fps
Аудио: AC-3 at 192 kbps, 2 ch (Front: L R), 48,0 kHz
Код: Выделить всё
Format                                   : Matroska
Format version                           : Version 4 / Version 2
File size                                : 2.08 GiB
Duration                                 : 2 h 25 min
Overall bit rate                         : 2 043 kb/s
Encoded date                             : UTC 2018-04-13 07:05:11
Writing application                      : mkvmerge v6.9.1 ('Blue Panther') 32bit built on Apr 18 2014 18:15:44
Writing library                          : libebml v1.3.0 + libmatroska v1.4.1
Video
ID                                       : 1
Format                                   : AVC
Format/Info                              : Advanced Video Codec
Format profile                           : High@L3.1
Format settings, CABAC                   : Yes
Format settings, ReFrames                : 8 frames
Codec ID                                 : V_MPEG4/ISO/AVC
Duration                                 : 2 h 25 min
Bit rate                                 : 1 849 kb/s
Width                                    : 682 pixels
Height                                   : 480 pixels
Display aspect ratio                     : 5:3
Original display aspect ratio            : 5:3
Frame rate mode                          : Constant
Frame rate                               : 23.976 (24000/1001) FPS
Color space                              : YUV
Chroma subsampling                       : 4:2:0
Bit depth                                : 8 bits
Scan type                                : Progressive
Bits/(Pixel*Frame)                       : 0.236
Stream size                              : 1.84 GiB (89%)
Writing library                          : x264 core 133 r2334 a3ac64b
Encoding settings                        : cabac=1 / ref=8 / deblock=1:-3:-3 / analyse=0x3:0x133 / me=umh / subme=9 / psy=1 / psy_rd=1.00:0.15 / mixed_ref=1 / me_range=28 / chroma_me=1 / trellis=2 / 8x8dct=1 / cqm=0 / deadzone=21,11 / fast_pskip=0 / chroma_qp_offset=-3 / threads=3 / lookahead_threads=1 / sliced_threads=0 / nr=0 / decimate=0 / interlaced=0 / bluray_compat=0 / constrained_intra=0 / bframes=5 / b_pyramid=2 / b_adapt=2 / b_bias=0 / direct=3 / weightb=1 / open_gop=0 / weightp=2 / keyint=240 / keyint_min=23 / scenecut=40 / intra_refresh=0 / rc_lookahead=60 / rc=2pass / mbtree=1 / bitrate=1849 / ratetol=3.0 / qcomp=0.60 / qpmin=0 / qpmax=69 / qpstep=4 / cplxblur=20.0 / qblur=0.5 / vbv_maxrate=14000 / vbv_bufsize=14000 / nal_hrd=none / ip_ratio=1.40 / aq=1:1.00
Language                                 : English
Default                                  : Yes
Forced                                   : No
Audio
ID                                       : 2
Format                                   : AC-3
Format/Info                              : Audio Coding 3
Mode extension                           : CM (complete main)
Format settings, Endianness              : Big
Codec ID                                 : A_AC3
Duration                                 : 2 h 25 min
Bit rate mode                            : Constant
Bit rate                                 : 192 kb/s
Channel(s)                               : 2 channels
Channel positions                        : Front: L R
Sampling rate                            : 48.0 kHz
Frame rate                               : 31.250 FPS (1536 spf)
Compression mode                         : Lossy
Stream size                              : 200 MiB (9%)
Default                                  : Yes
Forced                                   : No
Text
ID                                       : 3
Format                                   : UTF-8
Codec ID                                 : S_TEXT/UTF8
Codec ID/Info                            : UTF-8 Plain Text
Default                                  : Yes
Forced                                   : No
00:00:09,570 --> 00:00:13,280
<i>Следуя желанию Криса Маркера,
со-режиссер фильма Пьер Ломм</i>
2
00:00:13,426 --> 00:00:16,863
<b>вырезал около 20 минут из версии фильма,
показываемой в кинотеатрах </b>
3
00:00:42,010 --> 00:00:44,020
<i>Посвящается счастливому большинству</i>
4
00:01:24,651 --> 00:01:26,756
Есть ли на свете город красивее?
5
00:01:31,391 --> 00:01:34,133
Его хочется изучать на рассвете –
но так, чтобы никогда
6
00:01:34,294 --> 00:01:36,672
не узнать его по-настоящему, чтобы он
не стал привычкой или воспоминанием.
7
00:01:37,664 --> 00:01:39,302
Его хочется разгадывать.
И непременно лишь так,
8
00:01:39,466 --> 00:01:41,179
как это делали бы
герои детективных романов:
9
00:01:41,511 --> 00:01:43,938
используя подзорную трубу,
а потом – микрофон.
10
00:02:25,645 --> 00:02:29,320
Париж – один из городов,
куда хочется приехать, стерев память,
11
00:02:29,482 --> 00:02:32,429
вернуться после долгого отсутствия
и узнать,
12
00:02:32,619 --> 00:02:34,895
подходят ли старые ключи
к замкáм,
13
00:02:35,255 --> 00:02:36,666
с той же ли частотой
солнечные дни
14
00:02:36,856 --> 00:02:39,393
сменяются туманными,
15
00:02:39,559 --> 00:02:42,403
остался ли город циничным
и одновременно нежным,
16
00:02:42,562 --> 00:02:45,634
слышно ли на закате уханье совы,
17
00:02:45,798 --> 00:02:47,903
живет ли на острове все тот же кот,
18
00:02:48,268 --> 00:02:50,874
сохранились ли
аллегорические названия:
19
00:02:51,271 --> 00:02:52,545
госпиталь Валь-де-Грас,
 
Не забывайте говорить Спасибо. Не уходите с раздачи!   
Торрент: Зарегистрирован [13 апр 2018, 11:02] Для скачивания .torrent
необходима регистрация
Или скачать с помощью
MediaGet
Статус:
Проверен
 
.torrent скачан: 0 раз
Хэш: 39356207e5e1acbdb8806b7d4a38747583e6be69
Размер: 2.08 ГБ (2 233 757 120 байт)
Стать Автором раздачи
 
 
Раздал: 0 байт
Скачал: 0 байт
Ратио: Inf.
Сообщения: 487468
Зарегистрирован: 17 апр 2014, 13:57


  • Похожие торренты
    Ответы
    Просмотры
    Последнее сообщение

Вернуться в Арт-хаус и авторское кино

Ресурс не предоставляет электронные версии произведений, а занимается лишь коллекционированием и каталогизацией ссылок, присылаемых и публикуемых на форуме нашими читателями. Если вы являетесь правообладателем какого-либо представленного материала и не желаете чтобы ссылка на него находилась в нашем каталоге, свяжитесь с нами и мы незамедлительно удалим её. Файлы для обмена на трекере предоставлены пользователями сайта, и администрация не несёт ответственности за их содержание. Просьба не заливать файлы, защищенные авторскими правами, а также файлы нелегального содержания!
cron