Соединенные штаты любви / Zjednoczone stany milosci (Томаш Василевский / Tomasz Wasilewski) [2016, Польша, Швеция, драма, HDTVRip] DVO (ETV+) + Original Pol

 
 Статистика раздачи 
Размер: 1.46 ГБ   |  Зарегистрирован: 12 апр 2018, 20:36   |   .torrent скачан: 0 раз
Сидеров: 1  [ 0 байт/сек ]     Личеров: 0  [ 0 байт/сек ]  
  

Соединенные штаты любви / Zjednoczone stany milosci (Томаш Василевский / Tomasz Wasilewski) [2016, Польша, Швеция, драма, HDTVRip] DVO (ETV+) + Original Pol

Сообщение Nakazhu » 12 апр 2018, 20:36

Соединенные штаты любви / Zjednoczone stany milosci
Страна: Польша, Швеция
Жанр
: драма
Год выпуска: 2016
Продолжительность: 01:41:27
Перевод: Профессиональный (двухголосый закадровый) - ETV+
Субтитры: нет
Оригинальная аудиодорожка: польский
Режиссер: Томаш Василевский / Tomasz Wasilewski
В ролях: Юлия Киёвская, Магдалена Целецка, Дорота Коляк, Марта Нерадкевич, Томаш Тындык, Анджей Хыра, Лукаш Симлат, Марцин Чарнецки, Йеджей Велецки
Описание: События происходят зимой 1990 года в Польше, когда люди еще не совсем привыкли к новому образу жизни. Агата живет с нелюбимым мужем и ищет утешения на стороне. Рената влюбляется в соседку Мажену, бывшую королеву красоты. Сестра Маждены, Иза, директор местной школы. Она влюблена в отца своей ученицы. За полтора часа фильма жизнь героинь изменится, но получат ли они желаемое?
Качество видео: HDTVRip
Формат видео
: AVI
Видео: 720x320 (2.25:1), 25 fps, XviD build 73 ~1661 kbps avg, 0.29 bit/pixel
Аудио: 48 kHz, AC3 Dolby Digital, 2/0 (L,R) ch, ~192 kbps - двухголосый
Аудио: 48 kHz, AC3 Dolby Digital, 2/0 (L,R) ch, ~192 kbps - оригинал
Код: Выделить всё
General
Complete name               : H:\Zjednoczone.stany.milosci.2016.hdtvrip_[1.46]_[teko].avi
Format                      : AVI
Format/Info                 : Audio Video Interleave
File size                   : 1.46 GiB
Duration                    : 1h 41mn
Overall bit rate            : 2 061 Kbps
Writing application         : VirtualDubMod 1.5.10.3 | www.virtualdub-fr.org || (build 2550/release)
Writing library             : VirtualDubMod build 2550/release
Video
ID                          : 0
Format                      : MPEG-4 Visual
Format profile              : Advanced Simple@L5
Format settings, BVOP       : 2
Format settings, QPel       : No
Format settings, GMC        : No warppoints
Format settings, Matrix     : Custom
Codec ID                    : XVID
Codec ID/Hint               : XviD
Duration                    : 1h 41mn
Bit rate                    : 1 663 Kbps
Width                       : 720 pixels
Height                      : 320 pixels
Display aspect ratio        : 2.25:1
Frame rate                  : 25.000 fps
Color space                 : YUV
Chroma subsampling          : 4:2:0
Bit depth                   : 8 bits
Scan type                   : Progressive
Compression mode            : Lossy
Bits/(Pixel*Frame)          : 0.289
Stream size                 : 1.18 GiB (81%)
Writing library             : XviD 73
Audio #1
ID                          : 1
Format                      : AC-3
Format/Info                 : Audio Coding 3
Mode extension              : CM (complete main)
Format settings, Endianness : Big
Codec ID                    : 2000
Duration                    : 1h 41mn
Bit rate mode               : Constant
Bit rate                    : 192 Kbps
Channel(s)                  : 2 channels
Channel positions           : Front: L R
Sampling rate               : 48.0 KHz
Frame rate                  : 31.250 fps (1536 spf)
Compression mode            : Lossy
Stream size                 : 139 MiB (9%)
Alignment                   : Split accross interleaves
Interleave, duration        : 40 ms (1.00 video frame)
Interleave, preload duratio : 500 ms
Audio #2
ID                          : 2
Format                      : AC-3
Format/Info                 : Audio Coding 3
Mode extension              : CM (complete main)
Format settings, Endianness : Big
Codec ID                    : 2000
Duration                    : 1h 41mn
Bit rate mode               : Constant
Bit rate                    : 192 Kbps
Channel(s)                  : 2 channels
Channel positions           : Front: L R
Sampling rate               : 48.0 KHz
Frame rate                  : 31.250 fps (1536 spf)
Compression mode            : Lossy
Stream size                 : 139 MiB (9%)
Alignment                   : Split accross interleaves
Interleave, duration        : 40 ms (1.00 video frame)
Interleave, preload duratio : 500 ms
Релиз группы:


 
Не забывайте говорить Спасибо. Не уходите с раздачи!   
Торрент: Зарегистрирован [12 апр 2018, 20:36] Для скачивания .torrent
необходима регистрация
Или скачать с помощью
MediaGet
Статус:
Проверен
 
.torrent скачан: 0 раз
Хэш: cde27cb6fd1a3d495cafee895be3761f67fdbef7
Размер: 1.46 ГБ (1 568 591 872 байт)
Стать Автором раздачи
 
 
Раздал: 0 байт
Скачал: 0 байт
Ратио: Inf.
Сообщения: 487468
Зарегистрирован: 17 апр 2014, 13:57


  • Похожие торренты
    Ответы
    Просмотры
    Последнее сообщение

Вернуться в Арт-хаус и авторское кино

Ресурс не предоставляет электронные версии произведений, а занимается лишь коллекционированием и каталогизацией ссылок, присылаемых и публикуемых на форуме нашими читателями. Если вы являетесь правообладателем какого-либо представленного материала и не желаете чтобы ссылка на него находилась в нашем каталоге, свяжитесь с нами и мы незамедлительно удалим её. Файлы для обмена на трекере предоставлены пользователями сайта, и администрация не несёт ответственности за их содержание. Просьба не заливать файлы, защищенные авторскими правами, а также файлы нелегального содержания!
cron