Сырое / Grave / Raw (Джулия Дюкорно / Julia Ducournau) [1965, Франция, Бельгия, Италия, драма, ужасы, DVDRip] AVO ( Штейн)

 
 Статистика раздачи 
Размер: 1.46 ГБ   |  Зарегистрирован: 12 апр 2018, 18:33   |   .torrent скачан: 0 раз
Сидеров: 1  [ 0 байт/сек ]     Личеров: 0  [ 0 байт/сек ]  
  

Сырое / Grave / Raw (Джулия Дюкорно / Julia Ducournau) [1965, Франция, Бельгия, Италия, драма, ужасы, DVDRip] AVO ( Штейн)

Сообщение Nakazhu » 12 апр 2018, 18:33

Сырое / Grave / Raw
Страна: Франция, Бельгия, Италия
Жанр
: драма, ужасы
Год выпуска: 1965
Продолжительность: 01:34:30
Перевод: Авторский (одноголосый закадровый) - Владимир Штейн
Субтитры: нет
Режиссер: Джулия Дюкорно / Julia Ducournau
В ролях: Геренс Марилье, Элла Рамф, Рабах Наит Уфелла, Лоран Люка, Джоана Прейсс, Були Ланнерс, Марион Верну, Томас Мустин, Marouan Iddoub, Жан-Луи Сбий
Описание: В одной ветеринарной школе есть традиция – проводить ритуал поедания сырого мяса. Молодая вегетарианка, пересилив себя, проходит это испытание и понимает, что не может сопротивляться растущему желанию есть сырое мясо…
В описании на IMDb фильм относят к жанру "драма, ужасы", хотя любителям классических ужасов он вряд ли понравится. Вместе с тем, фильм содержит ряд шокирующе кровавых сцен, в связи с чем лицам с неустойчивой психикой его просмотр категорически не рекомендуется.

Качество видео: DVDRip
Формат видео
: AVI
Видео: 720x304 (2.37:1), 25 fps, XviD build 73 ~1812 kbps avg, 0.33 bit/pixel
Аудио: 48 kHz, AC3 Dolby Digital, 3/2 (L,C,R,l,r) + LFE ch, ~384 kbps
Код: Выделить всё
General
Complete name               : H:\Raw.2016.dvdrip_[1.46]_[teko].avi
Format                      : AVI
Format/Info                 : Audio Video Interleave
File size                   : 1.46 GiB
Duration                    : 1h 34mn
Overall bit rate            : 2 207 Kbps
Writing application         : VirtualDubMod 1.5.10.3 | www.virtualdub-fr.org || (build 2550/release)
Writing library             : VirtualDubMod build 2550/release
Video
ID                          : 0
Format                      : MPEG-4 Visual
Format profile              : Advanced Simple@L5
Format settings, BVOP       : 2
Format settings, QPel       : No
Format settings, GMC        : No warppoints
Format settings, Matrix     : Custom
Codec ID                    : XVID
Codec ID/Hint               : XviD
Duration                    : 1h 34mn
Bit rate                    : 1 813 Kbps
Width                       : 720 pixels
Height                      : 304 pixels
Display aspect ratio        : 2.35:1
Frame rate                  : 25.000 fps
Color space                 : YUV
Chroma subsampling          : 4:2:0
Bit depth                   : 8 bits
Scan type                   : Progressive
Compression mode            : Lossy
Bits/(Pixel*Frame)          : 0.331
Stream size                 : 1.20 GiB (82%)
Writing library             : XviD 73
Audio
ID                          : 1
Format                      : AC-3
Format/Info                 : Audio Coding 3
Mode extension              : CM (complete main)
Format settings, Endianness : Big
Codec ID                    : 2000
Duration                    : 1h 34mn
Bit rate mode               : Constant
Bit rate                    : 384 Kbps
Channel(s)                  : 6 channels
Channel positions           : Front: L C R, Side: L R, LFE
Sampling rate               : 48.0 KHz
Frame rate                  : 31.250 fps (1536 spf)
Compression mode            : Lossy
Stream size                 : 260 MiB (17%)
Alignment                   : Split accross interleaves
Interleave, duration        : 40 ms (1.00 video frame)
Interleave, preload duratio : 500 ms
Релиз группы:


 
Не забывайте говорить Спасибо. Не уходите с раздачи!   
Торрент: Зарегистрирован [12 апр 2018, 18:33] Для скачивания .torrent
необходима регистрация
Или скачать с помощью
MediaGet
Статус:
Проверен
 
.torrent скачан: 0 раз
Хэш: 86586a99807aa560aa2c1d7728bcde1992a3c75c
Размер: 1.46 ГБ (1 564 020 736 байт)
Стать Автором раздачи
 
 
Раздал: 0 байт
Скачал: 0 байт
Ратио: Inf.
Сообщения: 487468
Зарегистрирован: 17 апр 2014, 13:57


  • Похожие торренты
    Ответы
    Просмотры
    Последнее сообщение

Вернуться в Арт-хаус и авторское кино

Ресурс не предоставляет электронные версии произведений, а занимается лишь коллекционированием и каталогизацией ссылок, присылаемых и публикуемых на форуме нашими читателями. Если вы являетесь правообладателем какого-либо представленного материала и не желаете чтобы ссылка на него находилась в нашем каталоге, свяжитесь с нами и мы незамедлительно удалим её. Файлы для обмена на трекере предоставлены пользователями сайта, и администрация не несёт ответственности за их содержание. Просьба не заливать файлы, защищенные авторскими правами, а также файлы нелегального содержания!
cron