Астронавты / Les Astronautes (Валериан Боровчик / Walerian Borowczyk, Крис Маркер / Chris Marker) [1959, Франция, авторская анимация, абсурдный юмор, WEBRip] original + rus sub

 
 Статистика раздачи 
Размер: 105.42 МБ   |  Зарегистрирован: 12 апр 2018, 15:13   |   .torrent скачан: 0 раз
Сидеров: 1  [ 0 байт/сек ]     Личеров: 0  [ 0 байт/сек ]  
  

Астронавты / Les Astronautes (Валериан Боровчик / Walerian Borowczyk, Крис Маркер / Chris Marker) [1959, Франция, авторская анимация, абсурдный юмор, WEBRip] original + rus sub

Сообщение Nakazhu » 12 апр 2018, 15:13

Астронавты / Les Astronautes
Страна: Франция
Жанр: авторская анимация, абсурдный юмор
Год выпуска: 1959
Продолжительность: 00:12:04
Перевод: субтитры (alex.n42)
Субтитры: русские
Режиссёры: Валериан Боровчик / Walerian Borowczyk, Крис Маркер / Chris Marker
В главной роли: Мишель Боше / Michel Boschet
Описание: Человек собирает в домашних условиях летательный аппарат, отправляется на нём в космос, где встречает разумную жизнь и участвует (не очень удачно) в инопланетной перестрелке.
Доп. информация: Золотая медаль - Фестиваль в Бергамо (1960)
Приз за экспериментальный фильм - Фестиваль в Венеции (1960)
Приз международной прессы - Фестиваль в Оберхаузене (1960)
Качество видео: WEBRip
Формат видео: AVI
Видео: 1047 kbps, 608х464 (4:3), 25.000 fps, MPEG-4 Visual (XviD)
Аудио: 160 kbps, 44.1 kHz, 2 channels, MPEG Audio (MP3)
Формат субтитров: softsub (SRT)
Код: Выделить всё
General
Complete name                            : Les Astronautes (1959).avi
Format                                   : AVI
Format/Info                              : Audio Video Interleave
File size                                : 105 MiB
Duration                                 : 12mn 4s
Overall bit rate                         : 1 220 Kbps
Writing application                      : Lavf55.19.104
Writing library                          : VirtualDub build 35491/release
Video
ID                                       : 0
Format                                   : MPEG-4 Visual
Format profile                           : Simple@L5
Format settings, BVOP                    : No
Format settings, QPel                    : No
Format settings, GMC                     : No warppoints
Format settings, Matrix                  : Default (H.263)
Codec ID                                 : XVID
Codec ID/Hint                            : XviD
Duration                                 : 12mn 4s
Bit rate                                 : 1 047 Kbps
Width                                    : 608 pixels
Height                                   : 464 pixels
Display aspect ratio                     : 4:3
Frame rate                               : 25.000 fps
Color space                              : YUV
Chroma subsampling                       : 4:2:0
Bit depth                                : 8 bits
Scan type                                : Progressive
Compression mode                         : Lossy
Bits/(Pixel*Frame)                       : 0.149
Stream size                              : 90.5 MiB (86%)
Writing library                          : XviD 73
Audio
ID                                       : 1
Format                                   : MPEG Audio
Format version                           : Version 1
Format profile                           : Layer 3
Mode                                     : Joint stereo
Mode extension                           : MS Stereo
Codec ID                                 : 55
Codec ID/Hint                            : MP3
Duration                                 : 12mn 4s
Bit rate mode                            : Constant
Bit rate                                 : 160 Kbps
Channel(s)                               : 2 channels
Sampling rate                            : 44.1 KHz
Compression mode                         : Lossy
Stream size                              : 13.8 MiB (13%)
Alignment                                : Aligned on interleaves
Interleave, duration                     : 26 ms (0.65 video frame)
Interleave, preload duration             : 522 ms
Writing library                          : LAME3.99.5
 
Не забывайте говорить Спасибо. Не уходите с раздачи!   
Торрент: Зарегистрирован [12 апр 2018, 15:13] Для скачивания .torrent
необходима регистрация
Или скачать с помощью
MediaGet
Статус:
Проверен
 
.torrent скачан: 0 раз
Хэш: 6b8789012f3dce6b4078828bcbcc690ebe51dbf1
Размер: 105.42 МБ (110 536 158 байт)
Стать Автором раздачи
 
 
Раздал: 0 байт
Скачал: 0 байт
Ратио: Inf.
Сообщения: 487468
Зарегистрирован: 17 апр 2014, 13:57


  • Похожие торренты
    Ответы
    Просмотры
    Последнее сообщение

Вернуться в Арт-хаус и авторское кино

Ресурс не предоставляет электронные версии произведений, а занимается лишь коллекционированием и каталогизацией ссылок, присылаемых и публикуемых на форуме нашими читателями. Если вы являетесь правообладателем какого-либо представленного материала и не желаете чтобы ссылка на него находилась в нашем каталоге, свяжитесь с нами и мы незамедлительно удалим её. Файлы для обмена на трекере предоставлены пользователями сайта, и администрация не несёт ответственности за их содержание. Просьба не заливать файлы, защищенные авторскими правами, а также файлы нелегального содержания!
cron