Розовые фламинго / Pink Flamingos (Джон Уотерс / John Waters) [1972, США, комедия, криминал, ужасы, DVDRip-AVC] AVO (Алексеев) + Original Eng + Sub Eng

 
 Статистика раздачи 
Размер: 2.19 ГБ   |  Зарегистрирован: 11 апр 2018, 20:31   |   .torrent скачан: 0 раз
Сидеров: 1  [ 0 байт/сек ]     Личеров: 0  [ 0 байт/сек ]  
  

Розовые фламинго / Pink Flamingos (Джон Уотерс / John Waters) [1972, США, комедия, криминал, ужасы, DVDRip-AVC] AVO (Алексеев) + Original Eng + Sub Eng

Сообщение Nakazhu » 11 апр 2018, 20:31

Розовые фламингоPink Flamingos
Год выпуска: 1972
Страна: США
Жанр: комедия, криминал, ужасы
Продолжительность: 01:47:08
Перевод: Авторский (одноголосый закадровый) А. Алексеев
Субтитры: английские
Оригинальная аудиодорожка: английский
Режиссёр: Джон Уотерс / John Waters
В ролях: Дивайн, Дэвид Локари, Мэри Вивиан Пирс, Минк Стоул, Дэнни Миллс, Эдит Мэсси, Чаннинг Уилрой, Куки Мюллер, Пол Свифт, Сьюзэн Уолш и др.
Описание: Жуткая, гротескная Бэбс Джонсон живет на стоянке трейлеров со своим неполноценным сынком Крэкерсом и отвратительной Мамой Эди, помешанной на яйцах. Все согласны, что Бэбс — самая «грязная тварь в этом мире»; ее статус вызывает зависть торговцев детьми на черном рынке. Они дают обет, что будут еще «грязнее», чем их соперница. Начинается соревнование, включающее поджог, скотоложество, каннибализм, кастрацию и копрофагию…
КиноПоиск | IMDb | Sample
Качество: DVDRip-AVC (Источник: DVD5)
Формат: MKV
Видео: x264, 714x464@846x464 (1.85:1), 23.976 fps, ~2539 kbps avg, 0.320 bit/pixel
Аудио #1: Russian 48.0 KHz, АC3, 2/0 (Front: L R) ch, ~192.00 kbps avg |Алексеев|
Аудио #2: English 48.0 KHz, АC3, 2/0 (Front: L R) ch, ~192.00 kbps avg |Original|
Формат субтитров: softsub (SRT)
Рип - whip93.
Source vs. Encode

---[Information] [08.04.2018 16:47:41] raw [info]: 714x464p 32:27 @ 24000/1001 fps (cfr)
---[Information] [08.04.2018 16:47:41] x264 [info]: using SAR=32/27
---[Information] [08.04.2018 16:47:41] x264 [info]: using cpu capabilities: MMX2 SSE2Fast SSSE3 SSE4.2 AVX
---[Information] [08.04.2018 16:47:41] x264 [info]: profile High, level 4.1
---[Information] [08.04.2018 21:00:00] x264 [info]: frame I:760 Avg QP:17.48 size: 48829
---[Information] [08.04.2018 21:00:00] x264 [info]: frame P:30004 Avg QP:19.86 size: 23065
---[Information] [08.04.2018 21:00:00] x264 [info]: frame B:123295 Avg QP:22.13 size: 10614
---[Information] [08.04.2018 21:00:00] x264 [info]: consecutive B-frames: 0.9% 1.3% 4.4% 17.0% 18.9% 42.2% 7.5% 3.7% 1.7% 1.1% 0.4% 0.5% 0.2% 0.3%
---[Information] [08.04.2018 21:00:00] x264 [info]: mb I I16..4: 3.8% 85.6% 10.6%
---[Information] [08.04.2018 21:00:00] x264 [info]: mb P I16..4: 0.3% 24.3% 1.0% P16..4: 40.2% 24.8% 6.2% 1.0% 0.0% skip: 2.1%
---[Information] [08.04.2018 21:00:00] x264 [info]: mb B I16..4: 0.0% 3.2% 0.1% B16..8: 37.6% 20.0% 3.3% direct:15.4% skip:20.3% L0:38.5% L1:40.1% BI:21.4%
---[Information] [08.04.2018 21:00:00] x264 [info]: 8x8 transform intra:95.1% inter:67.4%
---[Information] [08.04.2018 21:00:00] x264 [info]: coded y,uvDC,uvAC intra: 97.7% 75.5% 36.8% inter: 54.1% 31.1% 1.6%
---[Information] [08.04.2018 21:00:00] x264 [info]: i16 v,h,dc,p: 31% 18% 9% 42%
---[Information] [08.04.2018 21:00:00] x264 [info]: i8 v,h,dc,ddl,ddr,vr,hd,vl,hu: 11% 7% 7% 9% 14% 15% 11% 13% 13%
---[Information] [08.04.2018 21:00:00] x264 [info]: i4 v,h,dc,ddl,ddr,vr,hd,vl,hu: 11% 9% 5% 8% 15% 17% 12% 12% 11%
---[Information] [08.04.2018 21:00:00] x264 [info]: i8c dc,h,v,p: 28% 26% 25% 20%
---[Information] [08.04.2018 21:00:00] x264 [info]: Weighted P-Frames: Y:10.8% UV:2.0%
---[Information] [08.04.2018 21:00:00] x264 [info]: ref P L0: 39.4% 6.3% 16.4% 6.5% 6.3% 3.9% 4.3% 2.4% 2.7% 1.9% 2.2% 1.6% 1.9% 1.4% 1.7% 1.2%
---[Information] [08.04.2018 21:00:00] x264 [info]: ref B L0: 76.2% 10.0% 3.8% 2.2% 1.5% 1.3% 1.0% 0.8% 0.6% 0.6% 0.5% 0.5% 0.4% 0.3% 0.1%
---[Information] [08.04.2018 21:00:00] x264 [info]: ref B L1: 95.9% 4.1%
---[Information] [08.04.2018 21:00:00] x264 [info]: kb/s:2537.12
---[Information] [08.04.2018 21:00:00] encoded 154059 frames, 10.18 fps, 2537.12 kb/s
General
Unique ID : 54693784096813972260860007214657924631 (0x2925A3C0856DA004D7513815EC056E17)
Complete name : F:\Pink.Flamingos.1972.DVDRip.DD2.0.x264.-whip93.mkv
Format : Matroska
Format version : Version 4 / Version 2
File size : 2.19 GiB
Duration : 1h 47mn
Overall bit rate : 2 914 Kbps
Movie name : Розовые фламинго | Pink Flamingos (1972) - Release by whip93
Encoded date : UTC 2018-04-08 17:32:55
Writing application : mkvmerge v20.0.0 ('I Am The Sun') 64-bit
Writing library : libebml v1.3.5 + libmatroska v1.4.8
DURATION : 01:42:17.086000000
NUMBER_OF_FRAMES : 1983
NUMBER_OF_BYTES : 66347
_STATISTICS_WRITING_APP : mkvmerge v20.0.0 ('I Am The Sun') 64-bit
_STATISTICS_WRITING_DATE_UT : 2018-04-08 17:32:55
_STATISTICS_TAGS : BPS DURATION NUMBER_OF_FRAMES NUMBER_OF_BYTES
Video
ID : 1
Format : AVC
Format/Info : Advanced Video Codec
Format profile : High@L4.1
Format settings, CABAC : Yes
Format settings, ReFrames : 16 frames
Codec ID : V_MPEG4/ISO/AVC
Duration : 1h 47mn
Bit rate : 2 539 Kbps
Width : 714 pixels
Height : 464 pixels
Display aspect ratio : 1.85:1
Frame rate mode : Constant
Frame rate : 23.976 fps
Color space : YUV
Chroma subsampling : 4:2:0
Bit depth : 8 bits
Scan type : Progressive
Bits/(Pixel*Frame) : 0.320
Stream size : 1.86 GiB (85%)
Title : Encoded by whip93
Writing library : x264 core 155 r2901 7d0ff22
Encoding settings : cabac=1 / ref=16 / deblock=1:-3:-3 / analyse=0x3:0x133 / me=umh / subme=11 / psy=1 / psy_rd=1.00:0.08 / mixed_ref=0 / me_range=64 / chroma_me=1 / trellis=2 / 8x8dct=1 / cqm=0 / deadzone=21,11 / fast_pskip=0 / chroma_qp_offset=-2 / threads=12 / lookahead_threads=3 / sliced_threads=0 / nr=0 / decimate=1 / interlaced=0 / bluray_compat=0 / constrained_intra=0 / bframes=13 / b_pyramid=2 / b_adapt=2 / b_bias=0 / direct=1 / weightb=1 / open_gop=0 / weightp=2 / keyint=240 / keyint_min=23 / scenecut=40 / intra_refresh=0 / rc_lookahead=90 / rc=2pass / mbtree=0 / bitrate=2539 / ratetol=1.0 / qcomp=0.72 / qpmin=0 / qpmax=69 / qpstep=4 / cplxblur=20.0 / qblur=0.5 / vbv_maxrate=50000 / vbv_bufsize=62500 / nal_hrd=none / filler=0 / ip_ratio=1.40 / pb_ratio=1.30 / aq=3:0.80
Language : English
Default : Yes
Forced : No
Color range : Limited
Color primaries : BT.709
Transfer characteristics : BT.709
Matrix coefficients : BT.709
Audio #1
ID : 2
Format : AC-3
Format/Info : Audio Coding 3
Mode extension : CM (complete main)
Format settings, Endianness : Big
Codec ID : A_AC3
Duration : 1h 47mn
Bit rate mode : Constant
Bit rate : 192 Kbps
Channel(s) : 2 channels
Channel positions : Front: L R
Sampling rate : 48.0 KHz
Compression mode : Lossy
Stream size : 148 MiB (7%)
Title : AVO (Алексеев)
Language : Russian
Default : Yes
Forced : No
Audio #2
ID : 3
Format : AC-3
Format/Info : Audio Coding 3
Format profile : Dolby Digital
Mode extension : CM (complete main)
Format settings, Endianness : Big
Codec ID : A_AC3
Duration : 1h 47mn
Bit rate mode : Constant
Bit rate : 192 Kbps
Channel(s) : 2 channels
Channel positions : Front: L R
Sampling rate : 48.0 KHz
Compression mode : Lossy
Stream size : 148 MiB (7%)
Title : Original
Language : English
Default : No
Forced : No
Text
ID : 4
Format : UTF-8
Codec ID : S_TEXT/UTF8
Codec ID/Info : UTF-8 Plain Text
Title : Original
Language : English
Default : No
Forced : No
Menu
00:00:00.000 : en:Main Titles
00:03:28.675 : en:Home Sweet Trailer
00:05:17.283 : en:Connie Marble
00:08:13.960 : en:Crackers Takes Babs Downtown
00:13:29.275 : en:The Pit
00:16:10.436 : en:Shoplifting
00:20:15.681 : en:Raymond Marble
00:22:36.321 : en:Cookie's Appointment
00:25:26.992 : en:The Chicken Fuck
00:30:18.283 : en:The Egg Man
00:32:22.407 : en:Artificial Insemination
00:35:43.775 : en:Shrimping
00:40:05.036 : en:The Turd is in the Mail
00:47:00.852 : en:The Servant at Play
00:52:29.680 : en:O Happy Day!
00:58:58.402 : en:The Birthday Party
01:02:00.785 : en:The Flasher
01:03:15.359 : en:The Curse
01:06:09.033 : en:The Blow Job
01:09:08.546 : en:The Castration
01:13:31.809 : en:The Trailer Burning
01:16:35.492 : en:The Couch That Rejects
01:21:03.260 : en:The Press Conference
01:26:35.193 : en:Convicted of Assholism
01:29:20.358 : en:Boise, Idaho. Get Ready!
01:30:56.454 : en:Dog Shit
01:32:16.200 : en:John Waters' Introduction
01:32:43.061 : en:Bab's Diary
01:33:01.079 : en:Get Her Pregnant!
01:33:51.129 : en:Mirror Mirror
01:34:03.141 : en:The Cover of Midnight
01:35:49.748 : en:Freddie and Joanne
01:36:37.796 : en:The Marbles' Early Raid
01:37:52.370 : en:Patty Hitler
01:38:54.432 : en:Strange Nudity
01:39:17.956 : en:Cunt Eyes
01:41:20.578 : en:Rub, Touch and Feel
01:42:10.128 : en:Connie's Rant and Haircut
01:42:57.175 : en:Inkpay Amingosflay
01:43:17.695 : en:Original Theatrical Trailer
01:45:33.831 : en:End Credits

 
Не забывайте говорить Спасибо. Не уходите с раздачи!   
Торрент: Зарегистрирован [11 апр 2018, 20:31] Для скачивания .torrent
необходима регистрация
Или скачать с помощью
MediaGet
Статус:
Проверен
 
.torrent скачан: 0 раз
Хэш: 9b33463004235b4aef1159318c8e6789a0ea9029
Размер: 2.19 ГБ (2 349 023 343 байт)
Стать Автором раздачи
 
 
Раздал: 0 байт
Скачал: 0 байт
Ратио: Inf.
Сообщения: 487468
Зарегистрирован: 17 апр 2014, 13:57


  • Похожие торренты
    Ответы
    Просмотры
    Последнее сообщение

Вернуться в Арт-хаус и авторское кино

Ресурс не предоставляет электронные версии произведений, а занимается лишь коллекционированием и каталогизацией ссылок, присылаемых и публикуемых на форуме нашими читателями. Если вы являетесь правообладателем какого-либо представленного материала и не желаете чтобы ссылка на него находилась в нашем каталоге, свяжитесь с нами и мы незамедлительно удалим её. Файлы для обмена на трекере предоставлены пользователями сайта, и администрация не несёт ответственности за их содержание. Просьба не заливать файлы, защищенные авторскими правами, а также файлы нелегального содержания!
cron