Молчание Кристины М. / Тишина вокруг Кристине М. / De stilte rond Christine M. / A Question of Silence (Марлен Горрис / Marleen Gorris) [1982, Нидерланды, драма, DVDRip-AVC] + Sub Rus

 
 Статистика раздачи 
Размер: 1.37 ГБ   |  Зарегистрирован: 11 апр 2018, 09:54   |   .torrent скачан: 0 раз
Сидеров: 1  [ 0 байт/сек ]     Личеров: 0  [ 0 байт/сек ]  
  

Молчание Кристины М. / Тишина вокруг Кристине М. / De stilte rond Christine M. / A Question of Silence (Марлен Горрис / Marleen Gorris) [1982, Нидерланды, драма, DVDRip-AVC] + Sub Rus

Сообщение Nakazhu » 11 апр 2018, 09:54

Молчание Кристины М. / Тишина вокруг Кристине М. / De stilte rond Christine M. / A Question of Silence
Страна: Нидерланды
Жанр: драма
Год выпуска: 1982
Продолжительность: 01:34:12
Перевод: Субтитры
Субтитры: русские
Оригинальная аудиодорожка: голландский, немецкий
Режиссер: Марлен Горрис / Marleen Gorris
В ролях: Эдда Барендс/Edda Barends, Нелли Фрийда/Nelly Frijda, Генриетте Толь/Henriëtte Tol, Кокс Хаббема/Cox Habbema, Эдди Брюгман/Eddie Brugman, Ганс Кройсет/Hans Croiset, Эрик Плуер/Erik Plooyer, Анна ван Бирс/Anna van Beers
Описание: Действие вращается вокруг убийства владельца бутика, которого до смерти избили 3 женщины, незнакомые ни с ним, ни друг с другом. Молодую женщину – судебного психиатра приглашают подключиться к расследованию, чтобы определить психическое состояние обвиняемых. Если сначала мотив убийства казался абсолютно непостижимым, то со временем всё приобретает смысл, и она начинает идентифицировать себя с этими женщинами. На абсурдной процедуре суда, которую проводят мужчины, совсем не понимающие позицию обвиняемых, в определенный момент все присутствующие женщины разражаются смехом и не могут остановиться. Мужчины ничего не понимают и злятся. Забавно, что в кинотеатрах аудитория была так же разделена: женщины понимали суть дела, а мужчины негодовали.
Марлен Горрис – нидерландская режиссерка и феминистка. «Молчание Кристины М.» – ее кинематографический дебют, ставший классикой феминистского кино. Изначально Марлен предложила свой сценарий Шанталь Акерман, но та сказала, что Марлен сама должна снять этот фильм. Деньги на съемки выделило правительство Нидерландов. Она получила за «Молчание Кристины М» Золотого Телёнка Нидерландского кинофестиваля. Также Марлен была первой женщиной, получивший Оскар в категории «Лучший фильм на иностранном языке» за свою работу «Антония» (1995).
Доп. информация: Перевод – Abris.
Сэмпл: http://multi-up.com/1194538
Качество видео: DVDRip-AVC
Формат видео: MKV
Видео: V_MPEG4/ISO/AVC at 1900 kbps, 0.188 bit/pixel, 710x570=>1013х570 at 25,000 fps
Аудио: AC-3 at 192 kbps, 2 ch (Front: L R), 48,0 kHz
Код: Выделить всё
Format                                   : Matroska
Format version                           : Version 4 / Version 2
File size                                : 1.37 GiB
Duration                                 : 1 h 34 min
Overall bit rate                         : 2 082 kb/s
Encoded date                             : UTC 2018-04-11 06:42:11
Writing application                      : mkvmerge v6.9.1 ('Blue Panther') 32bit built on Apr 18 2014 18:15:44
Writing library                          : libebml v1.3.0 + libmatroska v1.4.1
Video
ID                                       : 1
Format                                   : AVC
Format/Info                              : Advanced Video Codec
Format profile                           : High@L4
Format settings, CABAC                   : Yes
Format settings, ReFrames                : 8 frames
Codec ID                                 : V_MPEG4/ISO/AVC
Duration                                 : 1 h 34 min
Bit rate                                 : 1 900 kb/s
Width                                    : 710 pixels
Height                                   : 570 pixels
Display aspect ratio                     : 16:9
Original display aspect ratio            : 16:9
Frame rate mode                          : Constant
Frame rate                               : 25.000 FPS
Color space                              : YUV
Chroma subsampling                       : 4:2:0
Bit depth                                : 8 bits
Scan type                                : Progressive
Bits/(Pixel*Frame)                       : 0.188
Stream size                              : 1.22 GiB (89%)
Writing library                          : x264 core 138 r2358 9e941d1
Encoding settings                        : cabac=1 / ref=8 / deblock=1:3:3 / analyse=0x3:0x133 / me=umh / subme=10 / psy=1 / psy_rd=1.20:0.15 / mixed_ref=1 / me_range=28 / chroma_me=1 / trellis=2 / 8x8dct=1 / cqm=0 / deadzone=21,11 / fast_pskip=0 / chroma_qp_offset=-3 / threads=3 / lookahead_threads=1 / sliced_threads=0 / nr=0 / decimate=0 / interlaced=0 / bluray_compat=0 / constrained_intra=0 / bframes=5 / b_pyramid=2 / b_adapt=2 / b_bias=1 / direct=1 / weightb=1 / open_gop=0 / weightp=2 / keyint=250 / keyint_min=25 / scenecut=40 / intra_refresh=0 / rc_lookahead=60 / rc=2pass / mbtree=0 / bitrate=1900 / ratetol=4.0 / qcomp=1.00 / qpmin=0 / qpmax=69 / qpstep=4 / cplxblur=20.0 / qblur=0.5 / vbv_maxrate=25000 / vbv_bufsize=31250 / nal_hrd=none / ip_ratio=1.40 / pb_ratio=1.30 / aq=1:1.50
Language                                 : English
Default                                  : Yes
Forced                                   : No
Color range                              : Limited
Color primaries                          : Generic film
Audio
ID                                       : 2
Format                                   : AC-3
Format/Info                              : Audio Coding 3
Mode extension                           : CM (complete main)
Format settings, Endianness              : Big
Codec ID                                 : A_AC3
Duration                                 : 1 h 34 min
Bit rate mode                            : Constant
Bit rate                                 : 192 kb/s
Channel(s)                               : 2 channels
Channel positions                        : Front: L R
Sampling rate                            : 48.0 kHz
Frame rate                               : 31.250 FPS (1536 spf)
Compression mode                         : Lossy
Stream size                              : 130 MiB (9%)
Language                                 : Danish
Default                                  : Yes
Forced                                   : No
Text
ID                                       : 3
Format                                   : UTF-8
Codec ID                                 : S_TEXT/UTF8
Codec ID/Info                            : UTF-8 Plain Text
Default                                  : Yes
Forced                                   : No
1
00:00:03,800 --> 00:00:06,260
Я занят.
2
00:00:08,470 --> 00:00:10,350
Я тоже.
3
00:00:20,190 --> 00:00:23,320
Сделай потише.
4
00:00:26,860 --> 00:00:28,530
Спасибо.
5
00:01:30,550 --> 00:01:34,636
<b>Молчание Кристины М.</b>
6
00:02:18,930 --> 00:02:22,730
Чья яичница тут стынет?
7
00:02:23,730 --> 00:02:26,020
Твоя.
8
00:02:26,230 --> 00:02:28,530
Заберите ее.
У меня дел по горло.
9
00:02:28,730 --> 00:02:31,320
За фигурой следи.
10
00:02:31,530 --> 00:02:35,870
С каких пор вас интересует
моя фигура?
11
00:02:36,330 --> 00:02:40,910
Заберите яичницу.
Если не хотите – себе оставлю.
12
00:02:41,160 --> 00:02:44,880
– Мы будем котлеты.
– Котлеты!
13
00:02:51,340 --> 00:02:54,640
Все еще сохраняется
давление на цены,
14
00:02:54,840 --> 00:02:57,010
особенно в Германии.
15
00:02:57,350 --> 00:03:02,890
Сотрудников
AKH сократили
16
00:03:03,640 --> 00:03:09,150
на 14% до 3489-ти.
17
00:03:09,360 --> 00:03:12,360
Какой процент был
в прошлом году?
18
00:03:12,570 --> 00:03:16,120
8%. И 6% за границей.
19
00:03:16,320 --> 00:03:18,530
Осталось 902.
20
00:03:18,740 --> 00:03:23,830
Запишите это и дайте мне
результаты реорганизации.
 
Не забывайте говорить Спасибо. Не уходите с раздачи!   
Торрент: Зарегистрирован [11 апр 2018, 09:54] Скачать торрент
Скачать торрент
[ Размер 14.22 КБ / Просмотров 2 ]
Статус:
Проверен
 
.torrent скачан: 0 раз
Хэш: 9781c2d8c46c33814c2897a7c73194ea562d0b7f
Размер: 1.37 ГБ (1 476 052 516 байт)
Стать Автором раздачи
 
 
Раздал: 0 байт
Скачал: 0 байт
Ратио: Inf.
Сообщения: 487468
Зарегистрирован: 17 апр 2014, 13:57


  • Похожие торренты
    Ответы
    Просмотры
    Последнее сообщение

Вернуться в Арт-хаус и авторское кино

Ресурс не предоставляет электронные версии произведений, а занимается лишь коллекционированием и каталогизацией ссылок, присылаемых и публикуемых на форуме нашими читателями. Если вы являетесь правообладателем какого-либо представленного материала и не желаете чтобы ссылка на него находилась в нашем каталоге, свяжитесь с нами и мы незамедлительно удалим её. Файлы для обмена на трекере предоставлены пользователями сайта, и администрация не несёт ответственности за их содержание. Просьба не заливать файлы, защищенные авторскими правами, а также файлы нелегального содержания!
cron