Конгорама / Congorama (Филипп Фалардо / Philippe Falardeau) [2006, Канада, Бельгия, Франция, драма, трагикомедия, DVDRip] + Sub Rus (porcellus)+ Original Fra

 
 Статистика раздачи 
Размер: 1.4 ГБ   |  Зарегистрирован: 08 апр 2018, 23:57   |   .torrent скачан: 0 раз
Сидеров: 1  [ 0 байт/сек ]     Личеров: 0  [ 0 байт/сек ]  
  

Конгорама / Congorama (Филипп Фалардо / Philippe Falardeau) [2006, Канада, Бельгия, Франция, драма, трагикомедия, DVDRip] + Sub Rus (porcellus)+ Original Fra

Сообщение Nakazhu » 08 апр 2018, 23:57

Конгорама / Congorama
Страна: Канада , Бельгия , Франция
Жанр: драма, трагикомедия
Год выпуска: 2006
Продолжительность: 01:45:19
Перевод: субтитры - porcellus
Субтитры: русские
Оригинальная аудиодорожка: французская
Режиссер: Филипп Фалардо / Philippe Falardeau
В ролях: Оливье Гурме, Поль Амарани, Жан-Пьер Кассель, Клаудия Тагбо, Габриэль Аркан, Лоррен Пенталь, Арно Мётисс, Ги Пион, Джанин Сутто, Мари Брассар
Описание: Незадачливый изобретатель Мишель вместе с женой-конголезкой ухаживает за парализованным отцом, известным бельгийским писателем. Внезапно, в возрасте за сороковник, он узнает, что является приемным ребёнком, и родился в амбаре неподалеку от квебекского местечка Сен-Сесиль. Под предлогом бизнес-продвижения своего изобретения он отправляется в Квебек на поиски настоящих родителей. В сонной канадской провинции судьба сводит его с Луи, который соглашается подбросить Мишеля в Монреаль на своем гибридном автомобиле. В это время на соседней ферме из загона сбежал страус. Глупой птице суждено стать причиной трагикомических происшествий, навсегда изменивших судьбы обоих путешественников.

Лучи добра за поиск и предоставление видео надлежащего качества направляются на Arle-kino
Сэмпл: http://multi-up.com/1194259
Качество видео: DVDRip
Формат видео: AVI
Видео: 704x400 (1.76:1), 23.976 fps, XviD build 46 ~1671 kbps avg, 0.25 bit/pixel
Аудио: 48 kHz, AC3 Dolby Digital, 2 ch, ~224.00 kbps avg
Код: Выделить всё
General
Complete name                            : H:\temp\congorama\Congorama.avi
Format                                   : AVI
Format/Info                              : Audio Video Interleave
File size                                : 1.40 GiB
Duration                                 : 1 h 45 min
Overall bit rate                         : 1 907 kb/s
Video
ID                                       : 0
Format                                   : MPEG-4 Visual
Format profile                           : Advanced Simple@L5
Format settings, BVOP                    : 1
Format settings, QPel                    : No
Format settings, GMC                     : No warppoints
Format settings, Matrix                  : Custom
Codec ID                                 : XVID
Codec ID/Hint                            : XviD
Duration                                 : 1 h 45 min
Bit rate                                 : 1 671 kb/s
Width                                    : 704 pixels
Height                                   : 400 pixels
Display aspect ratio                     : 16:9
Frame rate                               : 23.976 (24000/1001) FPS
Color space                              : YUV
Chroma subsampling                       : 4:2:0
Bit depth                                : 8 bits
Scan type                                : Progressive
Compression mode                         : Lossy
Bits/(Pixel*Frame)                       : 0.248
Stream size                              : 1.23 GiB (88%)
Writing library                          : XviD 1.1.2 (UTC 2006-11-01)
Audio
ID                                       : 1
Format                                   : AC-3
Format/Info                              : Audio Coding 3
Mode extension                           : CM (complete main)
Format settings, Endianness              : Big
Codec ID                                 : 2000
Duration                                 : 1 h 45 min
Bit rate mode                            : Constant
Bit rate                                 : 224 kb/s
Channel(s)                               : 2 channels
Channel positions                        : Front: L R
Sampling rate                            : 48.0 kHz
Frame rate                               : 31.250 FPS (1536 spf)
Bit depth                                : 16 bits
Compression mode                         : Lossy
Stream size                              : 169 MiB (12%)
Alignment                                : Aligned on interleaves
Interleave, duration                     : 32  ms (0.77 video frame)
12
00:03:06,400 --> 00:03:07,590
Что ж такое!
13
00:03:12,700 --> 00:03:13,930
Как дела, папа?
14
00:03:15,210 --> 00:03:16,610
Что это такое?
15
00:03:17,540 --> 00:03:18,940
Твоя речь?
16
00:03:22,750 --> 00:03:24,010
Я не могу это прочитать.
17
00:03:30,720 --> 00:03:31,880
ТУ-144?
18
00:03:32,020 --> 00:03:33,790
Он потерпел катастрофу.
19
00:03:33,920 --> 00:03:36,260
Ты забыл закрылки
на кокпите.
20
00:03:36,560 --> 00:03:38,050
Можешь прочитать, Жюль?
21
00:03:39,130 --> 00:03:40,150
За…
22
00:03:41,200 --> 00:03:42,220
За 31 год...
23
00:03:42,370 --> 00:03:45,130
Можно тебя попросить? Перепиши это, пожалуйста.
24
00:03:45,670 --> 00:03:48,140
Привет, дорогой.
Отнесешь на четвертый?
25
00:03:48,270 --> 00:03:49,860
Тебе пора закрывать!
26
00:03:50,010 --> 00:03:52,440
Мишель, я все успею.
27
00:03:53,780 --> 00:03:56,080
Для беженцев на улице де Буасси.
28
00:03:56,210 --> 00:03:58,740
Я переодеться.
Надень свой новый пиджак.
29
00:04:15,230 --> 00:04:16,530
Понастроили домов!
30
00:04:19,100 --> 00:04:20,260
Все хорошо, папа?
31
00:04:22,810 --> 00:04:24,270
Последний.
32
00:04:28,580 --> 00:04:29,980
Пришли.
33
00:04:36,690 --> 00:04:38,620
Осторожно.
 
Не забывайте говорить Спасибо. Не уходите с раздачи!   
Торрент: Зарегистрирован [08 апр 2018, 23:57] Для скачивания .torrent
необходима регистрация
Или скачать с помощью
MediaGet
Статус:
Проверен
 
.torrent скачан: 0 раз
Хэш: 215e489b97b48023c0a0b46131e25eac542c0927
Размер: 1.4 ГБ (1 506 145 534 байт)
Стать Автором раздачи
 
 
Раздал: 0 байт
Скачал: 0 байт
Ратио: Inf.
Сообщения: 437283
Зарегистрирован: 17 апр 2014, 13:57


  • Похожие торренты
    Ответы
    Просмотры
    Последнее сообщение

Вернуться в Арт-хаус и авторское кино

Ресурс не предоставляет электронные версии произведений, а занимается лишь коллекционированием и каталогизацией ссылок, присылаемых и публикуемых на форуме нашими читателями. Если вы являетесь правообладателем какого-либо представленного материала и не желаете чтобы ссылка на него находилась в нашем каталоге, свяжитесь с нами и мы незамедлительно удалим её. Файлы для обмена на трекере предоставлены пользователями сайта, и администрация не несёт ответственности за их содержание. Просьба не заливать файлы, защищенные авторскими правами, а также файлы нелегального содержания!
cron