Verizon IndyCar Series 2018. Этап 2. Phoenix Grand Prix. Гонка. Viasat Sport HD [07.04.2018, Автоспорт, DVB-S2 Rip 720p, Рус/Анг]

 
 Статистика раздачи 
Размер: 5.5 ГБ   |  Зарегистрирован: 08 апр 2018, 13:06   |   .torrent скачан: 0 раз
Сидеров: 1  [ 0 байт/сек ]     Личеров: 0  [ 0 байт/сек ]  
  

Verizon IndyCar Series 2018. Этап 2. Phoenix Grand Prix. Гонка. Viasat Sport HD [07.04.2018, Автоспорт, DVB-S2 Rip 720p, Рус/Анг]

Сообщение Nakazhu » 08 апр 2018, 13:06

Verizon IndyCar Series 2018. Этап 2. Phoenix Grand Prix. Гонка. Viasat Sport HD
Вид спорта: Автоспорт
Описание: Гонка второго этапа сезона Индикар 2018 года.
О трассе: ISM Raceway - это одномильный триовал с небольшим уклоном, который расположен в Авондейл, Аризона, недалеко от Феникса. Он был открыт в 1964 и на данный момент вмещает 67 000 зрителей. В 2004 году было установлено освещение. Одной из особенностей трасы является резкое искревление на выходе из второго поворота, куда в 2019 году переместится линия старта-финиша. A.J. Foyt выиграл первую гонку на этом овале.
Дата/Год выпуска: 07.04.2018
Язык комментариев:Русский (Сергей Беднарук)
[*]Английский (NBCSN)Автор рипа/записи: Ales
Качество: DVB-S2 Rip
Формат видео: MKV
Видео: H264, 1280x720p, 50 кадр/c, 4 000 kb/s
Аудио: MP2 2.0, 48.0 KHz, 192 kb/s
2:59:55
Код: Выделить всё
General
Unique ID                                : 254194159737674541495988705884715814688 (0xBF3C03AF3DABCAB486556437324F0F20)
Complete name                            : E:\Indycar2018\Indycar2018.R02.Phoenix.Grand.Prix.Race.Viasat.Sport.HD.720P.Rus.Eng.mkv
Format                                   : Matroska
Format version                           : Version 4 / Version 2
File size                                : 5.50 GiB
Duration                                 : 2 h 59 min
Overall bit rate                         : 4 379 kb/s
Encoded date                             : UTC 2018-04-08 06:27:38
Writing application                      : mkvmerge v18.0.0 ('Apricity') 64-bit
Writing library                          : libebml v1.3.5 + libmatroska v1.4.8
Video
ID                                       : 1
Format                                   : AVC
Format/Info                              : Advanced Video Codec
Format profile                           : High@L3.1
Format settings                          : CABAC / 4 Ref Frames
Format settings, CABAC                   : Yes
Format settings, RefFrames               : 4 frames
Codec ID                                 : V_MPEG4/ISO/AVC
Duration                                 : 2 h 59 min
Bit rate                                 : 4 000 kb/s
Width                                    : 1 280 pixels
Height                                   : 720 pixels
Display aspect ratio                     : 16:9
Original display aspect ratio            : 16:9
Frame rate mode                          : Constant
Frame rate                               : 25.000 FPS
Color space                              : YUV
Chroma subsampling                       : 4:2:0
Bit depth                                : 8 bits
Scan type                                : Progressive
Bits/(Pixel*Frame)                       : 0.174
Stream size                              : 5.02 GiB (91%)
Writing library                          : x264 core 152 r2851kMod ba24899
Encoding settings                        : opencl=1 / cabac=1 / ref=2 / deblock=1:0:0 / analyse=0x3:0x113 / me=hex / subme=6 / psy=1 / fade_compensate=0.00 / psy_rd=1.00:0.00 / mixed_ref=1 / me_range=16 / chroma_me=1 / trellis=1 / 8x8dct=1 / cqm=0 / deadzone=21,11 / fast_pskip=1 / chroma_qp_offset=-2 / threads=28 / lookahead_threads=4 / sliced_threads=0 / nr=0 / decimate=1 / interlaced=0 / bluray_compat=0 / constrained_intra=0 / bframes=3 / b_pyramid=2 / b_adapt=1 / b_bias=0 / direct=1 / weightb=1 / open_gop=0 / weightp=1 / keyint=250 / keyint_min=25 / scenecut=40 / intra_refresh=0 / rc_lookahead=30 / rc=abr / mbtree=1 / bitrate=4000 / ratetol=1.0 / qcomp=0.60 / qpmin=0 / qpmax=69 / qpstep=4 / ip_ratio=1.40 / aq=1:1.00
Default                                  : Yes
Forced                                   : No
Audio #1
ID                                       : 2
Format                                   : MPEG Audio
Format version                           : Version 1
Format profile                           : Layer 2
Codec ID                                 : A_MPEG/L2
Codec ID/Hint                            : MP2
Duration                                 : 2 h 59 min
Bit rate mode                            : Constant
Bit rate                                 : 192 kb/s
Channel(s)                               : 2 channels
Sampling rate                            : 48.0 kHz
Frame rate                               : 41.666 FPS (1152 SPF)
Compression mode                         : Lossy
Delay relative to video                  : 22 ms
Stream size                              : 247 MiB (4%)
Language                                 : Russian
Default                                  : Yes
Forced                                   : No
Audio #2
ID                                       : 3
Format                                   : MPEG Audio
Format version                           : Version 1
Format profile                           : Layer 2
Codec ID                                 : A_MPEG/L2
Codec ID/Hint                            : MP2
Duration                                 : 2 h 59 min
Bit rate mode                            : Constant
Bit rate                                 : 192 kb/s
Channel(s)                               : 2 channels
Sampling rate                            : 48.0 kHz
Frame rate                               : 41.666 FPS (1152 SPF)
Compression mode                         : Lossy
Delay relative to video                  : 142 ms
Stream size                              : 247 MiB (4%)
Language                                 : English
Default                                  : No
Forced                                   : No
 
Не забывайте говорить Спасибо. Не уходите с раздачи!   
Торрент: Зарегистрирован [08 апр 2018, 13:06] Скачать торрент
Скачать торрент
[ Размер 55.69 КБ / Просмотров 4 ]
Статус:
Проверен
 
.torrent скачан: 0 раз
Хэш: 542a242c656650d77d07ff0f6f92e102fc9a3c6f
Размер: 5.5 ГБ (5 909 809 827 байт)
Стать Автором раздачи
 
 
Раздал: 0 байт
Скачал: 0 байт
Ратио: Inf.
Сообщения: 487468
Зарегистрирован: 17 апр 2014, 13:57


  • Похожие торренты
    Ответы
    Просмотры
    Последнее сообщение

Вернуться в Автоспорт

Ресурс не предоставляет электронные версии произведений, а занимается лишь коллекционированием и каталогизацией ссылок, присылаемых и публикуемых на форуме нашими читателями. Если вы являетесь правообладателем какого-либо представленного материала и не желаете чтобы ссылка на него находилась в нашем каталоге, свяжитесь с нами и мы незамедлительно удалим её. Файлы для обмена на трекере предоставлены пользователями сайта, и администрация не несёт ответственности за их содержание. Просьба не заливать файлы, защищенные авторскими правами, а также файлы нелегального содержания!
cron