Прогулка по Угличу (Андрей Соколов) [2010, путешествия и туризм, SATRip]

 
 Статистика раздачи 
Размер: 421.09 МБ   |  Зарегистрирован: 05 апр 2018, 22:02   |   .torrent скачан: 0 раз
Сидеров: 1  [ 0 байт/сек ]     Личеров: 0  [ 0 байт/сек ]  
  

Прогулка по Угличу (Андрей Соколов) [2010, путешествия и туризм, SATRip]

Сообщение Nakazhu » 05 апр 2018, 22:02

Прогулка по Угличу
Дата/Год выпуска: 2010
Страна
: Россия
Жанр: путешествия и туризм
Продолжительность: 00:38:12
Перевод: Не требуется
Русские субтитры: нет
Оригинальная аудиодорожка: нет
Режиссер: Андрей Соколов
Описание: Тихий и гостеприимный, восхищая туристов памятниками древнерусского зодчества, гармонично вписанными в окружающие пейзажи, тысячу лет стоит город Углич на крутом изгибе Волги. Первое упоминание о нем встречается в Ипатьевской летописи и датируется 1148 годом. Однако местные источники приписывают основание города княжичу Яну Плесковитичу в 937 году. Как и большинство древнерусских городов, Углич неоднократно переходил из рук в руки удельных князей, сгорал дотла и восстанавливался вновь. Но более всего этот город известен трагическими событиями конца 16 века, изменившими судьбу Российского государства. Сегодня Углич является одним из красивейших волжских городов.
качество: SATRip
формат: AVI
Видео: MPEG4, XviD, 720x576 (5:4), 25.000 fps, 1 400 Kbps (0.135 bit/pixel)
Аудио: MP3, 48.0 KHz, 2 ch, 128 Kbps, CBR
Код: Выделить всё
General
Complete name                            : C:\Users\User\Downloads\Прогулка по Угличу.avi
Format                                   : AVI
Format/Info                              : Audio Video Interleave
File size                                : 421 MiB
Duration                                 : 38mn 12s
Overall bit rate                         : 1 541 Kbps
Writing library                          : TMPGEnc 4.0 XPress Version. 4.7.7.307
Video
ID                                       : 0
Format                                   : MPEG-4 Visual
Format profile                           : Simple@L1
Format settings, BVOP                    : No
Format settings, QPel                    : No
Format settings, GMC                     : No warppoints
Format settings, Matrix                  : Default (H.263)
Codec ID                                 : XVID
Codec ID/Hint                            : XviD
Duration                                 : 38mn 12s
Bit rate                                 : 1 400 Kbps
Width                                    : 720 pixels
Height                                   : 576 pixels
Display aspect ratio                     : 5:4
Frame rate                               : 25.000 fps
Standard                                 : PAL
Color space                              : YUV
Chroma subsampling                       : 4:2:0
Bit depth                                : 8 bits
Scan type                                : Progressive
Compression mode                         : Lossy
Bits/(Pixel*Frame)                       : 0.135
Stream size                              : 383 MiB (91%)
Writing library                          : Lavc52.92.0
Audio
ID                                       : 1
Format                                   : MPEG Audio
Format version                           : Version 1
Format profile                           : Layer 3
Mode                                     : Joint stereo
Mode extension                           : MS Stereo
Codec ID                                 : 55
Codec ID/Hint                            : MP3
Duration                                 : 38mn 12s
Bit rate mode                            : Constant
Bit rate                                 : 128 Kbps
Channel(s)                               : 2 channels
Sampling rate                            : 48.0 KHz
Compression mode                         : Lossy
Stream size                              : 35.0 MiB (8%)
Alignment                                : Aligned on interleaves
Interleave, duration                     : 40 ms (1.01 video frame)
Interleave, preload duration             : 384 ms
 
Не забывайте говорить Спасибо. Не уходите с раздачи!   
Торрент: Зарегистрирован [05 апр 2018, 22:02] Для скачивания .torrent
необходима регистрация
Или скачать с помощью
MediaGet
Статус:
Проверен
 
.torrent скачан: 0 раз
Хэш: c049b99ed89753930653b5630b82b4f24869c200
Размер: 421.09 МБ (441 544 882 байт)
Стать Автором раздачи
 
 
Раздал: 0 байт
Скачал: 0 байт
Ратио: Inf.
Сообщения: 486741
Зарегистрирован: 17 апр 2014, 13:57


  • Похожие торренты
    Ответы
    Просмотры
    Последнее сообщение

Вернуться в Документальные фильмы и телепередачи

Ресурс не предоставляет электронные версии произведений, а занимается лишь коллекционированием и каталогизацией ссылок, присылаемых и публикуемых на форуме нашими читателями. Если вы являетесь правообладателем какого-либо представленного материала и не желаете чтобы ссылка на него находилась в нашем каталоге, свяжитесь с нами и мы незамедлительно удалим её. Файлы для обмена на трекере предоставлены пользователями сайта, и администрация не несёт ответственности за их содержание. Просьба не заливать файлы, защищенные авторскими правами, а также файлы нелегального содержания!
cron