Семья (Дмитрий Сорокин) [2012, мелодрама, комедия, WEB-DLRip]

 
 Статистика раздачи 
Размер: 1.46 ГБ   |  Зарегистрирован: 03 апр 2018, 13:26   |   .torrent скачан: 0 раз
Сидеров: 1  [ 0 байт/сек ]     Личеров: 0  [ 0 байт/сек ]  
  

Семья (Дмитрий Сорокин) [2012, мелодрама, комедия, WEB-DLRip]

Сообщение Nakazhu » 03 апр 2018, 13:26

Семья
Жанр: мелодрама, комедия
Год выпуска: 2012
Продолжительность: 01:29:20
Режиссёр: Дмитрий Сорокин
В ролях: Алексей Секирин, Наталья Рычкова, Михаил Богдасаров, Татьяна Рудина, Егор Лучишкин, Саят Абаджян, Андрей Капустин, Мария Малиновская, Георгий Назаренко, Константин Новиков, Кристина Шелобкова, Ярослав Рось

Описание: Это история Алексея Новикова, владельца небольшой фирмы по производству компьютерных программ. Для расширения бизнеса Алексею необходимо подписать соглашение с американским партнером, Дэвидом Коти. Но оказалось, что для Коти важно иметь дело с человеком семейным. Чтобы заключить сделку, Алексей врет, что у него есть жена и дети. Коти приедет со дня на день, Алексею удается найти актрису, которая согласна изображать его супругу. Но в последний момент женщина отказывается. Взять на себя эту роль вынуждена Алена, одна из сотрудниц Алексея. Герою предстоит пройти сложный путь, выстроить взаимоотношения с двумя детьми Алены, найти общий язык с ее мамой, и, наконец, понять, что даже самый успешный бизнес не сможет заменить семейного тепла.

Sample
Качество видео: WEB-DLRip
Формат видео: AVI
Видео: 720x400 (1.80:1), 25 fps, XviD build 73 ~2140 kbps avg, 0.29 bit/pixel
Аудио: 48 kHz, AC3 Dolby Digital, 2/0 (L,R) ch, ~192 kbps
General
Complete name : D:\СемьЯ 2012 WEB-DLRip.avi
Format : AVI
Format/Info : Audio Video Interleave
File size : 1.46 GiB
Duration : 1h 29mn
Overall bit rate : 2 342 Kbps
Writing application : VirtualDubMod 1.5.10.3 | www.virtualdub-fr.org || (build 2550/release)
Writing library : VirtualDubMod build 2550/release
Video
ID : 0
Format : MPEG-4 Visual
Format profile : Advanced Simple@L5
Format settings, BVOP : 1
Format settings, QPel : No
Format settings, GMC : No warppoints
Format settings, Matrix : Default (MPEG)
Codec ID : XVID
Codec ID/Hint : XviD
Duration : 1h 29mn
Bit rate : 2 140 Kbps
Width : 720 pixels
Height : 400 pixels
Display aspect ratio : 16:9
Frame rate : 25.000 fps
Color space : YUV
Chroma subsampling : 4:2:0
Bit depth : 8 bits
Scan type : Progressive
Compression mode : Lossy
Bits/(Pixel*Frame) : 0.297
Stream size : 1.34 GiB (91%)
Writing library : XviD 1.2.1 (UTC 2008-12-04)
Audio
ID : 1
Format : AC-3
Format/Info : Audio Coding 3
Mode extension : CM (complete main)
Format settings, Endianness : Big
Codec ID : 2000
Duration : 1h 29mn
Bit rate mode : Constant
Bit rate : 192 Kbps
Channel count : 2 channels
Channel positions : Front: L R
Sampling rate : 48.0 KHz
Bit depth : 16 bits
Compression mode : Lossy
Stream size : 123 MiB (8%)
Alignment : Split accross interleaves
Interleave, duration : 40 ms (1.00 video frame)
Interleave, preload duration : 500 ms


 
Не забывайте говорить Спасибо. Не уходите с раздачи!   
Торрент: Зарегистрирован [03 апр 2018, 13:26] Для скачивания .torrent
необходима регистрация
Или скачать с помощью
MediaGet
Статус:
Проверен
 
.torrent скачан: 0 раз
Хэш: 7b5ef86253336457de0ad933cd6ebfa5499e26fc
Размер: 1.46 ГБ (1 569 073 152 байт)
Стать Автором раздачи
 
 
Раздал: 0 байт
Скачал: 0 байт
Ратио: Inf.
Сообщения: 458375
Зарегистрирован: 17 апр 2014, 13:57


  • Похожие торренты
    Ответы
    Просмотры
    Последнее сообщение

Вернуться в Отечественные фильмы 2011 - 2015 года

Ресурс не предоставляет электронные версии произведений, а занимается лишь коллекционированием и каталогизацией ссылок, присылаемых и публикуемых на форуме нашими читателями. Если вы являетесь правообладателем какого-либо представленного материала и не желаете чтобы ссылка на него находилась в нашем каталоге, свяжитесь с нами и мы незамедлительно удалим её. Файлы для обмена на трекере предоставлены пользователями сайта, и администрация не несёт ответственности за их содержание. Просьба не заливать файлы, защищенные авторскими правами, а также файлы нелегального содержания!
cron