Прогулка по Валдаю (Андрей Акимов) [2010, путешествия и туризм, SATRip]

 
 Статистика раздачи 
Размер: 298.68 МБ   |  Зарегистрирован: 02 апр 2018, 22:42   |   .torrent скачан: 0 раз
Сидеров: 1  [ 0 байт/сек ]     Личеров: 0  [ 0 байт/сек ]  
  

Прогулка по Валдаю (Андрей Акимов) [2010, путешествия и туризм, SATRip]

Сообщение Nakazhu » 02 апр 2018, 22:42

Прогулка по Валдаю
Дата/Год выпуска: 2010
Страна
: Россия
Жанр: путешествия и туризм
Продолжительность: 00:23:22
Перевод: Не требуется
Русские субтитры: нет
Оригинальная аудиодорожка: русский
Режиссер: Андрей Акимов
Телеканал: RTG TV
Описание: Гостеприимство у валдайцев, живущих у оживленной трассы, как говорится, в крови. Когда-то гостей здесь встречали знаменитыми на всю страну баранками, они не черствели очень много дней, поэтому купцы и путешественники с удовольствием брали их с собой в долгую дорогу. А звонкие валдайские колокольчики прославлены на весь мир. Еще одна достопримечательность этих мест - чистейшее Валдайское озеро. Воду из него можно пить. «Валда» в переводе с древнего финно-угорского языка означает светлый, прозрачный. По всему озеру разбросаны маленькие и большие острова. На одном из них стоит красивейший Иверский монастырь. Когда в 1653-м патриарх Никон выбирал место для его строительства он сказал слова: «На небе рай, а на земле Валдай».
качество: SATRip
формат: AVI
Видео: MPEG4, XviD, 704x528 (4:3), 25.000 fps, 1 649 Kbps (0.177 bit/pixel)
Аудио: MP3, 48.0 KHz, 2 ch, 128 Kbps, CBR
Код: Выделить всё
General
Complete name                            : C:\Users\User\Downloads\Прогулка по Валдаю.avi
Format                                   : AVI
Format/Info                              : Audio Video Interleave
File size                                : 299 MiB
Duration                                 : 23mn 22s
Overall bit rate                         : 1 787 Kbps
Writing application                      : VirtualDubMod 1.5.10.3 | www.virtualdub-fr.org || (build 2550/release)
Writing library                          : VirtualDubMod build 2550/release
Video
ID                                       : 0
Format                                   : MPEG-4 Visual
Format profile                           : Advanced Simple@L5
Format settings, BVOP                    : 1
Format settings, QPel                    : No
Format settings, GMC                     : No warppoints
Format settings, Matrix                  : Default (H.263)
Codec ID                                 : XVID
Codec ID/Hint                            : XviD
Duration                                 : 23mn 22s
Bit rate                                 : 1 649 Kbps
Width                                    : 704 pixels
Height                                   : 528 pixels
Display aspect ratio                     : 4:3
Frame rate                               : 25.000 fps
Color space                              : YUV
Chroma subsampling                       : 4:2:0
Bit depth                                : 8 bits
Scan type                                : Progressive
Compression mode                         : Lossy
Bits/(Pixel*Frame)                       : 0.177
Stream size                              : 276 MiB (92%)
Writing library                          : XviD 1.2.1 (UTC 2008-12-04)
Audio
ID                                       : 1
Format                                   : MPEG Audio
Format version                           : Version 1
Format profile                           : Layer 3
Codec ID                                 : 55
Codec ID/Hint                            : MP3
Duration                                 : 23mn 22s
Bit rate mode                            : Constant
Bit rate                                 : 128 Kbps
Channel(s)                               : 2 channels
Sampling rate                            : 48.0 KHz
Compression mode                         : Lossy
Stream size                              : 21.4 MiB (7%)
Alignment                                : Aligned on interleaves
Interleave, duration                     : 40 ms (1.00 video frame)
Interleave, preload duration             : 504 ms
Writing library                          : LAME3.98r
Encoding settings                        : -m s -V 4 -q 2 -lowpass 17 -b 128
 
Не забывайте говорить Спасибо. Не уходите с раздачи!   
Торрент: Зарегистрирован [02 апр 2018, 22:42] Для скачивания .torrent
необходима регистрация
Или скачать с помощью
MediaGet
Статус:
Проверен
 
.torrent скачан: 0 раз
Хэш: 5d512c43ada6ceb4c5ffa563c1a564a9d4649816
Размер: 298.68 МБ (313 188 352 байт)
Стать Автором раздачи
 
 
Раздал: 0 байт
Скачал: 0 байт
Ратио: Inf.
Сообщения: 487468
Зарегистрирован: 17 апр 2014, 13:57


  • Похожие торренты
    Ответы
    Просмотры
    Последнее сообщение

Вернуться в Документальные фильмы и телепередачи

Ресурс не предоставляет электронные версии произведений, а занимается лишь коллекционированием и каталогизацией ссылок, присылаемых и публикуемых на форуме нашими читателями. Если вы являетесь правообладателем какого-либо представленного материала и не желаете чтобы ссылка на него находилась в нашем каталоге, свяжитесь с нами и мы незамедлительно удалим её. Файлы для обмена на трекере предоставлены пользователями сайта, и администрация не несёт ответственности за их содержание. Просьба не заливать файлы, защищенные авторскими правами, а также файлы нелегального содержания!
cron