(Rock'n'Roll) [CD] The Beatles - Rare Beatles - Anniversary edition (John Lennon-60) bootleg - 2000, FLAC (image+.cue), lossless

 
 Статистика раздачи 
Размер: 413.38 МБ   |  Зарегистрирован: 01 апр 2018, 16:43   |   .torrent скачан: 0 раз
Сидеров: 1  [ 0 байт/сек ]     Личеров: 0  [ 0 байт/сек ]  
  

(Rock'n'Roll) [CD] The Beatles - Rare Beatles - Anniversary edition (John Lennon-60) bootleg - 2000, FLAC (image+.cue), lossless

Сообщение Nakazhu » 01 апр 2018, 16:43

The Beatles / Rare Beatles - Anniversary edition (John Lennon-60) bootleg
Жанр: Rock'n'Roll
Носитель: CD
Страна-производитель диска (релиза): Россия
Год издания: 2000
Издатель (лейбл): Landy Star Music
Номер по каталогу: LS-3370
Страна исполнителя (группы): United Kingdom
Аудиокодек: FLAC (*.flac)
Тип рипа: image+.cue
Битрейт аудио: lossless
Продолжительность: 1:05:45
Источник (релизер): Диск из личной коллекции
Наличие сканов в содержимом раздачи: да
Треклист:
01 Like Dreamers Do
02 Thank You Girl (Take 1)
03 Money (That's What I Want)
04 To Know Her Is To Love Her
05 Memphis, Tennessee
06 Till There Was You
07 Sure To Fall (In Love With You)
08 Besame Mucho
09 Love Of The Loved
10 Hello Little Girl
11 Three Cool Cats
12 September In The Rain
13 Take Good Care Of My Baby
14 Crying, Waiting, Hoping
15 The Sheik Of Araby
16 Searchin'
17 Come & Get It
18 Leave My Kitten Alone
19 Not Guilty
20 What's The New Mary Jane
21 How Do You Do It
22 If You've Got Trouble
23 That Means A Lot
24 While My Guitar Gently Weeps
25 Mailman, Bring Me No More Blues
26 Christmas Time (Is Here Again)
Код: Выделить всё
Exact Audio Copy V1.0 beta 3 from 29. August 2011
EAC extraction logfile from 8. September 2015, 18:47
The Beatles / Rare Beatles - Anniversary Edition
Used drive  : Optiarc DVD RW AD-7580S   Adapter: 1  ID: 0
Read mode               : Secure
Utilize accurate stream : Yes
Defeat audio cache      : Yes
Make use of C2 pointers : No
Read offset correction                      : 6
Overread into Lead-In and Lead-Out          : No
Fill up missing offset samples with silence : Yes
Delete leading and trailing silent blocks   : No
Null samples used in CRC calculations       : Yes
Used interface                              : Native Win32 interface for Win NT & 2000
Used output format              : User Defined Encoder
Selected bitrate                : 768 kBit/s
Quality                         : High
Add ID3 tag                     : No
Command line compressor         : C:\Program Files\Exact Audio Copy\FLAC\FLAC.EXE
Additional command line options : -6 -V -T "ARTIST=%artist%" -T "TITLE=%title%" -T "ALBUM=%albumtitle%" -T "DATE=%year%" -T "TRACKNUMBER=%tracknr%" -T "GENRE=%genre%" -T "COMMENT=%comment%" -T "BAND=%albuminterpret%" -T "ALBUMARTIST=%albuminterpret%" -T "COMPOSER=%composer%" %haslyrics%--tag-from-file=LYRICS="%lyricsfile%"%haslyrics% -T "DISCNUMBER=%cdnumber%" -T "TOTALDISCS=%totalcds%" -T "TOTALTRACKS=%numtracks%" %hascover%--picture="%coverfile%"%hascover% %source% -o %dest%
TOC of the extracted CD
     Track |   Start  |  Length  | Start sector | End sector
    ---------------------------------------------------------
        1  |  0:00.00 |  2:36.63 |         0    |    11762
        2  |  2:36.63 |  2:08.52 |     11763    |    21414
        3  |  4:45.40 |  2:25.17 |     21415    |    32306
        4  |  7:10.57 |  2:38.06 |     32307    |    44162
        5  |  9:48.63 |  2:23.51 |     44163    |    54938
        6  | 12:12.39 |  3:02.20 |     54939    |    68608
        7  | 15:14.59 |  2:05.07 |     68609    |    77990
        8  | 17:19.66 |  2:43.06 |     77991    |    90221
        9  | 20:02.72 |  1:54.33 |     90222    |    98804
       10  | 21:57.30 |  1:41.36 |     98805    |   106415
       11  | 23:38.66 |  2:26.31 |    106416    |   117396
       12  | 26:05.22 |  1:56.36 |    117397    |   126132
       13  | 28:01.58 |  2:29.21 |    126133    |   137328
       14  | 30:31.04 |  2:05.31 |    137329    |   146734
       15  | 32:36.35 |  1:43.49 |    146735    |   154508
       16  | 34:20.09 |  3:05.14 |    154509    |   168397
       17  | 37:25.23 |  2:28.47 |    168398    |   179544
       18  | 39:53.70 |  2:56.53 |    179545    |   192797
       19  | 42:50.48 |  3:22.01 |    192798    |   207948
       20  | 46:12.49 |  6:06.16 |    207949    |   235414
       21  | 52:18.65 |  1:57.02 |    235415    |   244191
       22  | 54:15.67 |  2:26.27 |    244192    |   255168
       23  | 56:42.19 |  2:29.44 |    255169    |   266387
       24  | 59:11.63 |  3:25.05 |    266388    |   281767
       25  | 62:36.68 |  1:55.60 |    281768    |   290452
       26  | 64:32.53 |  1:12.37 |    290453    |   295889
Range status and errors
Selected range
     Filename C:\Music_library_images\The Beatles\Rare Beatles - Anniversary Edition\The Beatles - Rare Beatles - Anniversary Edition.wav
     Peak level 96.3 %
     Extraction speed 4.8 X
     Range quality 100.0 %
     Test CRC D0A2C897
     Copy CRC D0A2C897
     Copy OK
No errors occurred
AccurateRip summary
Track  1  not present in database
Track  2  not present in database
Track  3  not present in database
Track  4  not present in database
Track  5  not present in database
Track  6  not present in database
Track  7  not present in database
Track  8  not present in database
Track  9  not present in database
Track 10  not present in database
Track 11  not present in database
Track 12  not present in database
Track 13  not present in database
Track 14  not present in database
Track 15  not present in database
Track 16  not present in database
Track 17  not present in database
Track 18  not present in database
Track 19  not present in database
Track 20  not present in database
Track 21  not present in database
Track 22  not present in database
Track 23  not present in database
Track 24  not present in database
Track 25  not present in database
Track 26  not present in database
None of the tracks are present in the AccurateRip database
End of status report
Код: Выделить всё
REM GENRE Rock & Roll
REM DATE 2000
PERFORMER "The Beatles"
TITLE "Rare Beatles - Anniversary Edition"
FILE "The Beatles - Rare Beatles - Anniversary Edition.flac" WAVE
  TRACK 01 AUDIO
    TITLE "Like Dreamers Do"
    INDEX 01 00:00:00
  TRACK 02 AUDIO
    TITLE "Thank You Girl (take 1)"
    INDEX 01 02:36:63
  TRACK 03 AUDIO
    TITLE "Money"
    INDEX 01 04:45:40
  TRACK 04 AUDIO
    TITLE "To Know Her Is To Love Her"
    INDEX 01 07:10:57
  TRACK 05 AUDIO
    TITLE "Memphis"
    INDEX 01 09:48:63
  TRACK 06 AUDIO
    TITLE "Till' There Was You"
    INDEX 01 12:12:39
  TRACK 07 AUDIO
    TITLE "Sure To Fall"
    INDEX 01 15:14:59
  TRACK 08 AUDIO
    TITLE "Beasme Mucho"
    INDEX 01 17:19:66
  TRACK 09 AUDIO
    TITLE "Love Of The Loved"
    INDEX 01 20:02:72
  TRACK 10 AUDIO
    TITLE "Hello Little Girl"
    INDEX 01 21:57:30
  TRACK 11 AUDIO
    TITLE "Three Cool Cats"
    INDEX 01 23:38:66
  TRACK 12 AUDIO
    TITLE "September In The Rain"
    INDEX 01 26:05:22
  TRACK 13 AUDIO
    TITLE "Take Good Care Of My Baby"
    INDEX 01 28:01:58
  TRACK 14 AUDIO
    TITLE "Crying, Waiting, Hoping"
    INDEX 01 30:31:04
  TRACK 15 AUDIO
    TITLE "The Sheik Of Araby"
    INDEX 01 32:36:35
  TRACK 16 AUDIO
    TITLE "Searchin'"
    INDEX 01 34:20:09
  TRACK 17 AUDIO
    TITLE "Come And Get It"
    INDEX 01 37:25:23
  TRACK 18 AUDIO
    TITLE "Leave My Kitten Alone"
    INDEX 01 39:53:70
  TRACK 19 AUDIO
    TITLE "Not Guilty"
    INDEX 01 42:50:48
  TRACK 20 AUDIO
    TITLE "What's The News, Mary Jane"
    INDEX 01 46:12:49
  TRACK 21 AUDIO
    TITLE "How Do You Do It"
    INDEX 01 52:18:65
  TRACK 22 AUDIO
    TITLE "If You've Got Troubles"
    INDEX 01 54:15:67
  TRACK 23 AUDIO
    TITLE "That Means A Lot"
    INDEX 01 56:42:19
  TRACK 24 AUDIO
    TITLE "While My Guitar Gently Weeps"
    INDEX 01 59:11:63
  TRACK 25 AUDIO
    TITLE "Mail Man Blues"
    INDEX 01 62:36:68
  TRACK 26 AUDIO
    TITLE "Christmas Time Is Here Again"
    INDEX 01 64:32:53
Доп. информация: Российский пиратский сборник, выпущенный к 60-илетию Джона Леннона. Качество записи для нашей отечественной пиратки очень неплохое: судя по всему, в качестве исходников использовались оцифровки небезызвестного Dr. Ebbetts. До этого на трекере лежала только mp3-версия, которую какие-то пираты позже перепиратили назад на CD. Мой диск - из оригинального первого тиража, в настоящем lossless, в чём легко можно убедиться по спектрам.
Диск содержит все 15 треков с прослушивания на студии Decca (которое группа провалила), а так же фрагменты другого не менее печального сборника, Sessions, который фирма EMI пыталась выпустить без ведома музыкантов группы уже после её распада, но была в последний момент остановлена.
 
Не забывайте говорить Спасибо. Не уходите с раздачи!   
Торрент: Зарегистрирован [01 апр 2018, 16:43] Скачать торрент
Скачать торрент
[ Размер 17.22 КБ / Просмотров 18 ]
Статус:
Проверен
 
.torrent скачан: 0 раз
Хэш: 3a0febf66fa24e6a0d8babb10e230c5579fb948a
Размер: 413.38 МБ (433 462 609 байт)
Стать Автором раздачи
 
 
Раздал: 0 байт
Скачал: 0 байт
Ратио: Inf.
Сообщения: 487468
Зарегистрирован: 17 апр 2014, 13:57


Re: (Rock'n'Roll) [CD] The Beatles - Rare Beatles - Anniversary edition (John Lennon-60) bootleg - 2000, FLAC (image+.cue), lossless

Сообщение dashriprock » 18 ноя 2018, 09:52

Thanks to everyone involved in bribing this online, hosting it, and sharing, and seeding it, so that one day I may have the opportunity to return the favor.

You guys rock
 
Раздал: 200 ГБ
Скачал: 0 байт
Ратио: Seed.
Сообщения: 1
Зарегистрирован: 18 ноя 2018, 09:30


  • Похожие торренты
    Ответы
    Просмотры
    Последнее сообщение

Вернуться в Classic Rock & Hard Rock (lossless)

Ресурс не предоставляет электронные версии произведений, а занимается лишь коллекционированием и каталогизацией ссылок, присылаемых и публикуемых на форуме нашими читателями. Если вы являетесь правообладателем какого-либо представленного материала и не желаете чтобы ссылка на него находилась в нашем каталоге, свяжитесь с нами и мы незамедлительно удалим её. Файлы для обмена на трекере предоставлены пользователями сайта, и администрация не несёт ответственности за их содержание. Просьба не заливать файлы, защищенные авторскими правами, а также файлы нелегального содержания!
cron